[bittorrent] Old Timey Jam The Burren Somerville, Massachusetts 7/11/2021 (Schoeps CCM4V'S FOB Z--Man)

Automated Mailer noreply-bt.e at etree.org
Mon Jul 12 13:21:51 UTC 2021


Band:           Other
Torrent Name:   Old Timey Jam The Burren Somerville, Massachusetts 7/11/2021  (Schoeps CCM4V'S FOB Z--Man)
Uploaded by:    zmanatl
DB Link:        
Details:        http://bt.etree.org/details.php?id=613159

Contact the seeder at http://db.etree.org/zmanatl

If the link to this show does not work, it was probably removed for
being non-trade-friendly.

Description / text file:
-------------------------
Old Timey Jam
The Burren
Somerville, Massachusetts
7/11/2021 

Source: Schoeps CCM4V'S>Lunatec V2>Sound Devices 722 (24/44.1)
FOB/DFC/KFC/ZFC/AARP Stage Lip, 4 1/2' High
DSP: Sound Devices 722>Sound Forge 10.0>CD Wave>flac(16)
ID3 Tagged In Foobar 2000
Recorded By: Z-Man
Seeded By: Z-Man
A Team Dirty South Recording

Disc I 1st Set

01 ?
02 Franky And Johnny
03 Down The Road
04 Instrumental
05 Leaving Home
06 Instrumental
07 Instrumental
08 ?

Disc II 2nd Set

01 Instrumental
02 Instrumental
03 Instrumental
04 Farewell Trion
05 ?
06 Trials, Troubles, And Tribulations 
07 The Man On The Flying Trapeze
08 Sittin' On Top Of The World
09 ?
10 ?

I got there as they were beginning to play. They were set up in the corner of the bar and the place was packed and 
very loud. I listed theplayers but never had the chance to formally meat them all. I loved the Jam session!!! It is
a bit loud and chatty, but remember, we were in an Irish Pub! Feel free to contact me with any song titles on the 
instrumental tunes. Some serious talent in the room!

Alan - Fiddle And Vocals
Jerry Dallal - Acoustic Guitar And Vocals
? - Fiddle And Vocals
? - Fiddle
? - Acoustic Guitar
? - Fiddle, Mandolin, Acoustic Guitar, And Bass
? - Bass And Vocals
? - Mandolin
Ronald Frashure - Dobro
? - Ukelele-BanJo
? - Fiddle And Vocals

oldtimey2021-07-11d01t01.flac:c47ddd6a22cb4996d31529bf1907c441
oldtimey2021-07-11d01t02.flac:5be817ad5de3f9913cac16ee6ed7529d
oldtimey2021-07-11d01t03.flac:0321a0705dfc0c6084c45bb534a7a8f0
oldtimey2021-07-11d01t04.flac:d7db52536197ab2cd7b1e3e41d70ebba
oldtimey2021-07-11d01t05.flac:a12335936449c96108fda7de24188c68
oldtimey2021-07-11d01t06.flac:5a8563871fc857765c70cdb425e60e79
oldtimey2021-07-11d01t07.flac:4e06c0b24359e43c3bd75682c5f1c771
oldtimey2021-07-11d01t08.flac:820475e3600ad316fa56fa96595d8745
oldtimey2021-07-11d02t01.flac:fa40197c83aadbe802a5d1645e8797b4
oldtimey2021-07-11d02t02.flac:b2ee6d96e4ad3d3cdaa9e85370342e03
oldtimey2021-07-11d02t03.flac:2f9ee2aa0e44e3428c53808316b644c6
oldtimey2021-07-11d02t04.flac:0831e061e34def28771258fb20f05aae
oldtimey2021-07-11d02t05.flac:0f36b4e8a5eb05d70e4e2151c0897166
oldtimey2021-07-11d02t06.flac:63bf0a5cc1def670623c7428f75112e5
oldtimey2021-07-11d02t07.flac:5e39b76b21fe76a981ee8cfc217e7259
oldtimey2021-07-11d02t08.flac:4b4c2b0de5cc18e2e84b2c38c4f53018
oldtimey2021-07-11d02t09.flac:45f223d77d61e145b8f62c09fd28d33f
oldtimey2021-07-11d02t10.flac:5e77613cd1d529fdb14c0e4ee9b155b5

length     expanded size    cdr  WAVE problems  fmt   ratio  filename
     5:54.61       62589116 B   ---   --   ---xx   flac  0.5558  oldtimey2021-07-11d01t01.flac
     3:47.01       40045196 B   ---   --   ---xx   flac  0.5140  oldtimey2021-07-11d01t02.flac
     4:36.08       48705260 B   ---   --   ---xx   flac  0.5808  oldtimey2021-07-11d01t03.flac
     5:12.37       55123868 B   ---   --   ---xx   flac  0.5202  oldtimey2021-07-11d01t04.flac
     4:55.11       52063916 B   ---   --   ---xx   flac  0.5073  oldtimey2021-07-11d01t05.flac
     5:22.50       56918444 B   ---   --   ---xx   flac  0.5578  oldtimey2021-07-11d01t06.flac
     4:41.27       49631948 B   ---   --   ---xx   flac  0.5868  oldtimey2021-07-11d01t07.flac
     5:32.28       58630700 B   ---   --   ---xx   flac  0.4810  oldtimey2021-07-11d01t08.flac
     1:50.38       19493420 B   ---   --   ---xx   flac  0.5130  oldtimey2021-07-11d02t01.flac
     4:46.53       50575100 B   ---   --   ---xx   flac  0.5552  oldtimey2021-07-11d02t02.flac
     4:52.17       51548828 B   ---   --   ---xx   flac  0.5904  oldtimey2021-07-11d02t03.flac
     4:41.06       49582556 B   ---   --   ---xx   flac  0.5483  oldtimey2021-07-11d02t04.flac
     4:41.45       49674284 B   ---   --   ---xx   flac  0.5679  oldtimey2021-07-11d02t05.flac
     4:00.41       42432476 B   ---   --   ---xx   flac  0.5013  oldtimey2021-07-11d02t06.flac
     3:21.39       35548172 B   ---   --   ---xx   flac  0.5559  oldtimey2021-07-11d02t07.flac
     6:28.51       68563196 B   ---   --   ---xx   flac  0.5474  oldtimey2021-07-11d02t08.flac
     3:21.32       35531708 B   ---   --   ---xx   flac  0.5611  oldtimey2021-07-11d02t09.flac
     3:11.51       33812396 B   ---   --   ---xx   flac  0.4990  oldtimey2021-07-11d02t10.flac
    81:17.71      860470584 B                            0.5428  (18 files)






More information about the bittorrent mailing list