[bittorrent] Dire Sloth Harbor Loop Summer Concert Series Stage Fort Park Gloucester Massachusetts 7/8/2021 (Schoeps CCM4V'S FOB Z-Man)

Automated Mailer noreply-bt.e at etree.org
Sun Jul 11 04:27:08 UTC 2021


Band:           Other
Torrent Name:   Dire Sloth Harbor Loop Summer Concert Series Stage Fort Park Gloucester Massachusetts 7/8/2021  (Schoeps CCM4V'S FOB Z-Man)
Uploaded by:    zmanatl
DB Link:        
Details:        http://bt.etree.org/details.php?id=613149

Contact the seeder at http://db.etree.org/zmanatl

If the link to this show does not work, it was probably removed for
being non-trade-friendly.

Description / text file:
-------------------------
Dire Sloth
Harbor Loop Summer Concert Series
Stage Fort Park
Gloucester Massachusetts
7/8/2021 

Source: Schoeps CCM4V'S>Lunatec V2>Sound Devices 722 (24/44.1)
FOB/DFC/KFC/ZFC/AARP 10' From Stage, 6 1/2' High
DSP: Sound Devices 722>Sound Forge 10.0>CD Wave>flac(16)
ID3 Tagged In Foobar 2000
Recorded By: Z-Man
Seeded By: Z-Man
A Team Dirty South Recording

Disc I 

01 Gream A Little Dream
02 Dark Hollow
03 Albuquerque
04 Show Of Life
05 Carol Pallazolla Thanks/Outro

Jim Williamson - Acoustic Guitar And Vocals
Bob Cushman - Percussion And Vocals

diresloth2021-07-08d01t01.flac:e3c3777c6908e7a2da21fdb5ef471f8d
diresloth2021-07-08d01t02.flac:7a7b5070a5933e319c256d7c94ef5031
diresloth2021-07-08d01t03.flac:8a593d50de9ba27c980bb94356f2fab3
diresloth2021-07-08d01t04.flac:461c639623e96431997619511296336a
diresloth2021-07-08d01t05.flac:db088c7fe054b36bf3ac53569a940637

 length     expanded size    cdr  WAVE problems  fmt   ratio  filename
     3:23.31       35882156 B   ---   --   ---xx   flac  0.3652  diresloth2021-07-08d01t01.flac
     5:42.67       60486428 B   ---   --   ---xx   flac  0.4164  diresloth2021-07-08d01t02.flac
     4:13.43       44730380 B   ---   --   ---xx   flac  0.3646  diresloth2021-07-08d01t03.flac
     4:36.15       48721724 B   ---   --   ---xx   flac  0.4360  diresloth2021-07-08d01t04.flac
     1:39.30       17534204 B   ---   --   ---xx   flac  0.4394  diresloth2021-07-08d01t05.flac
    19:35.36      207354892 B                            0.4029  (5 files)




More information about the bittorrent mailing list