[bittorrent] Live Dead Harbor Loop Summer Concert Series Stage Fort Park Gloucester Massachusetts 7/8/2021 (Schoeps CCM4V'S FOB Z-Man)

Automated Mailer noreply-bt.e at etree.org
Sun Jul 11 02:43:12 UTC 2021


Band:           Other
Torrent Name:   Live Dead  Harbor Loop Summer Concert Series Stage Fort Park Gloucester Massachusetts 7/8/2021  (Schoeps CCM4V'S FOB Z-Man)
Uploaded by:    zmanatl
DB Link:        
Details:        http://bt.etree.org/details.php?id=613148

Contact the seeder at http://db.etree.org/zmanatl

If the link to this show does not work, it was probably removed for
being non-trade-friendly.

Description / text file:
-------------------------
Live Dead 
Harbor Loop Summer Concert Series
Stage Fort Park
Gloucester Massachusetts
7/8/2021 

Source: Schoeps CCM4V'S>Lunatec V2>Sound Devices 722 (24/44.1)
FOB/DFC/KFC/ZFC/AARP 10' From Stage, 6 1/2' High
DSP: Sound Devices 722>Sound Forge 10.0>CD Wave>flac(16)
ID3 Tagged In Foobar 2000
Recorded By: Z-Man
Seeded By: Z-Man
A Team Dirty South Recording

Disc I 

01 Announcements And Introduction By Carol Pallazolla
02 Bertha
03 Mississippi Half-Step, Uptown Toodeloo
04 Brown-Eyed Women
05 Feel Like A Stranger 
06 They Love Each Other
07 Tennessee Jed

Disc II 

01 Eyes Of The World >
02 Shakedown Street 
03 *Scarlet Begonias >
04 *Fire On The Mountain >
05 Scarlet Begonias Reprise
06 US Blues
07 Band Introductions
Encore:
08 Carol Pallazolla Bring Em' Back
09 Goin' Down The Road Feelin' Bad
10 Carol Pallazolla Thanks/Outro

* With Alegra Larson On Vocals

Jeff Larson - Guitar And Vocals
Joe Wilkins - Guitar And Vocals
Pete Dennesen - Bass
Tim Walsh - Keyboards And Vocals
Kim Trigilio - Vocals
Jack Howard - Drums

livedead2021-07-08d01t01.flac:bddb9f2eb259081430c2c0d9b09c45e8
livedead2021-07-08d01t02.flac:4d89d444aaca98563bd057734f14523b
livedead2021-07-08d01t03.flac:64ddf11178186871a46896efe9577b1d
livedead2021-07-08d01t04.flac:ea025c40d1268ce01f8a9d44efd85390
livedead2021-07-08d01t05.flac:bb05571c413d07dc6a4f8adac0684eea
livedead2021-07-08d01t06.flac:1bc670903f1c12c5684d5a40e081a9bb
livedead2021-07-08d01t07.flac:59732d285f3b5364d3a3ab05a2b6af89
livedead2021-07-08d02t01.flac:0f1d7994faff73dabc94ac452ce61368
livedead2021-07-08d02t02.flac:7a61d22ece4e40742258b37fb0110ec2
livedead2021-07-08d02t03.flac:844ab17d7c7e8875a0dda87e9223dd04
livedead2021-07-08d02t04.flac:057d20ef42730fc45beade678636e8a0
livedead2021-07-08d02t05.flac:8e851b4e6286763cbe3563578c5718a7
livedead2021-07-08d02t06.flac:9fedcc5beca1b9db916f3b0fa81df74a
livedead2021-07-08d02t07.flac:e8cf944807f05b67d365b3f5eda7f241
livedead2021-07-08d02t08.flac:7940449801c054cb387c55b0ecb13752
livedead2021-07-08d02t09.flac:522af2b195ffbcfeca3df1a93417b730
livedead2021-07-08d02t10.flac:081f97b95785868ca35e2a96f33feb17

length     expanded size    cdr  WAVE problems  fmt   ratio  filename
     2:52.08       30359660 B   ---   --   ---xx   flac  0.3763  livedead2021-07-08d01t01.flac
     9:38.29      102027452 B   ---   --   ---xx   flac  0.4830  livedead2021-07-08d01t02.flac
     8:38.66       91530476 B   ---   --   ---xx   flac  0.5436  livedead2021-07-08d01t03.flac
     6:22.13       67415420 B   ---   --   ---xx   flac  0.5273  livedead2021-07-08d01t04.flac
     7:05.61       75113516 B   ---   --   ---xx   flac  0.5340  livedead2021-07-08d01t05.flac
     7:05.53       75094700 B   ---   --   ---xx   flac  0.5312  livedead2021-07-08d01t06.flac
     8:08.65       86236124 B   ---   --   ---xx   flac  0.5126  livedead2021-07-08d01t07.flac
     9:54.54      104908652 B   ---   --   ---xx   flac  0.5608  livedead2021-07-08d02t01.flac
    10:57.12      115923068 B   ---   --   ---xx   flac  0.5329  livedead2021-07-08d02t02.flac
     7:39.39       81059372 B   ---   --   ---xx   flac  0.5726  livedead2021-07-08d02t03.flac
     6:16.67       66484028 B   ---   --   ---xx   flac  0.5752  livedead2021-07-08d02t04.flac
     1:56.02       20467148 B   ---   --   ---xx   flac  0.3752  livedead2021-07-08d02t05.flac
     5:20.35       56530364 B   ---   --   ---xx   flac  0.5886  livedead2021-07-08d02t06.flac
     0:41.41        7328876 B   ---   --   ---xx   flac  0.4152  livedead2021-07-08d02t07.flac
     1:38.27       17350748 B   ---   --   ---xx   flac  0.3412  livedead2021-07-08d02t08.flac
     8:51.57       93802508 B   ---   --   ---xx   flac  0.5615  livedead2021-07-08d02t09.flac
     1:19.64       14086172 B   ---   --   ---xx   flac  0.3929  livedead2021-07-08d02t10.flac
   104:28.18     1105718284 B                            0.5278  (17 files)








More information about the bittorrent mailing list