[bittorrent] Swami Gone Bananas Fourth Of July Party/New Pool Party Kim Fleisher's House Decatur, Georgia 7/3/2021 (Schoeps CCM4V'S FOB Z-Man)

Automated Mailer noreply-bt.e at etree.org
Sat Jul 10 05:11:08 UTC 2021


Band:           Other
Torrent Name:   Swami Gone Bananas Fourth Of July Party/New Pool Party Kim Fleisher's House Decatur, Georgia 7/3/2021 (Schoeps CCM4V'S FOB Z-Man)
Uploaded by:    zmanatl
DB Link:        
Details:        http://bt.etree.org/details.php?id=613141

Contact the seeder at http://db.etree.org/zmanatl

If the link to this show does not work, it was probably removed for
being non-trade-friendly.

Description / text file:
-------------------------
Swami Gone Bananas
Fourth Of July Party/New Pool Party
Kim Fleisher's House
Decatur, Georgia
7/3/2021

Source: Schoeps CCM4V'S>Lunatec V2>Sound Devices 722 (24/44.1)
FOB/DFC/KFC/ZFC/AARP 9' From Stage, 5' High
DSP: Sound Devices 722>Sound Forge 10.0>CD Wave>flac(16)
ID3 Tagged In Foobar 2000
Recorded By: Z-Man
Seeded By: Z-Man
A Team Dirty South Recording

Disc I 1st Set

01 Introduction By Kim Fleisher
02 Goin' To California
03 Stranger In A Strange Land
04 Little Wing
05 I Shall Be Releasewd
06 Cold Rain And Snow
07 Jingo >
08 Soul Sacrifice 
09 Dreams
10 Youngblood 
11 Riders On The Storm
12 Little Help From My Friends 
13 The Shadow Knows
14 He's Gone 
15 Birthday Announcements By Kim Fleisher

Disc II 2nd Set

01 Norwegian Wood 
02 What Is And What Should Never Be
03 Shopping For Clothes
04 I Went To Winder To Find Her, I Went To Tucker To Pray
05 The Letter >
06 Over The Hills And Far Away
07 Everybody Knows This Is Nowhere >
08 Dear Doctor
09 Hey Joe
10 Forever Young
11 Lucy In The Sky >
12 Roadhouse Blues
13 Into The Mystic
14 Baba O'Riley

Disc III Encore

01 Kim Fleisher - Bring Em' Back
02 Drink That Wine
03 She Belongs To Me
04 Thrift Store Nightmare >
05 Blue Jay Way
06 Kim Fleisher - Thanks And Goodnight

Michael "Swami" Schulman - Guitar And Vocals
Jerry Sorn - Electric Guitar, Acoustic Guitar, Keyboard, And Vocals
Dave "Deuce And A Quarter" Roth - Bass And Vocals
J R Hawkins - Drums And Vocals

swami2021-07-03d01t01.flac:05e32429e8ff57deed6950867268e5f4
swami2021-07-03d01t02.flac:1169c836cf502080d921c9eb1ed30fba
swami2021-07-03d01t03.flac:6ac1df17fcefa3ee1ec793923b7b9452
swami2021-07-03d01t04.flac:6b880eba58b0a14a8a108b0fce0e5a03
swami2021-07-03d01t05.flac:41b1198af6b2e5c72da460b99fc6a949
swami2021-07-03d01t06.flac:56d239e2f5e8bf33107e3b9033ab95b2
swami2021-07-03d01t07.flac:dd3a1a755d65cbb3e97b4817a980b54a
swami2021-07-03d01t08.flac:af2440d5b7721e00da092a1fd7c9dd0e
swami2021-07-03d01t09.flac:31f8e4b31354ad4dbe353d3500b9c9d2
swami2021-07-03d01t10.flac:6871b001d66cfaf1da502bea8e74df89
swami2021-07-03d01t11.flac:3c80cd2b4ddce1e4069b7eb66cf7b771
swami2021-07-03d01t12.flac:471114a15d3d88d84d9f488b27210b5e
swami2021-07-03d01t13.flac:a8863ef2983d3302c422d723c2e9ecdb
swami2021-07-03d01t14.flac:a9dbd6fed02c5e9abc126ee0048d9a41
swami2021-07-03d01t15.flac:96795020242899ca22e7bf85409de81b
swami2021-07-03d02t01.flac:413b51c012af3f0467b959f66f8d8e02
swami2021-07-03d02t02.flac:839802213500a9272ba269777adbbddb
swami2021-07-03d02t03.flac:f77165f0d648605cbd147426a411cdf9
swami2021-07-03d02t04.flac:e18270613c6fa1a97edb7b7e4c8b23eb
swami2021-07-03d02t05.flac:fc933a0ca4746658ed781aafb04648df
swami2021-07-03d02t06.flac:2cdd57f4e25dd4882af6cea86e757113
swami2021-07-03d02t07.flac:e70afa28ed8ee80749895ebb25251348
swami2021-07-03d02t08.flac:a7bb97c4276bceb4ec0d27bdce05b3df
swami2021-07-03d02t09.flac:c447b17e09f35bdf1679fe2eb6366d93
swami2021-07-03d02t10.flac:10bd9de00fee201e9f06654cf81f10cf
swami2021-07-03d02t11.flac:d1d32207206c9a02956d2116e81aa896
swami2021-07-03d02t12.flac:118925cec3d774318e04a75e1394ba0e
swami2021-07-03d02t13.flac:9c85cd65ff104269c4b0672c9dedf4db
swami2021-07-03d02t14.flac:2f54fb1cd34a4ffcd175ecb937bfcc6c
swami2021-07-03d03t01.flac:eb0b4517e633fc55a18be23d926438cd
swami2021-07-03d03t02.flac:6142fe1dca9334b91bef146242c02fbb
swami2021-07-03d03t03.flac:d9a6a5c0f51c56a0ee6ca10135e372f2
swami2021-07-03d03t04.flac:6124af5234aea8803bd5078f467a8470
swami2021-07-03d03t05.flac:335079fb60d05e894c94d1d8582d7974
swami2021-07-03d03t06.flac:00ac89c00540fe1f30111db12d3ff7af

  length     expanded size    cdr  WAVE problems  fmt   ratio  filename
     1:34.46       16689836 B   ---   --   ---xx   flac  0.2606  swami2021-07-03d01t01.flac
     5:50.45       61845884 B   ---   --   ---xx   flac  0.3920  swami2021-07-03d01t02.flac
     6:56.03       73389500 B   ---   --   ---xx   flac  0.4640  swami2021-07-03d01t03.flac
     5:57.56       63106556 B   ---   --   ---xx   flac  0.5540  swami2021-07-03d01t04.flac
     7:05.38       75059420 B   ---   --   ---xx   flac  0.4453  swami2021-07-03d01t05.flac
     5:28.67       58016828 B   ---   --   ---xx   flac  0.5459  swami2021-07-03d01t06.flac
     7:12.22       76256588 B   ---   --   ---xx   flac  0.5764  swami2021-07-03d01t07.flac
     1:30.68       16035980 B   ---   --   ---xx   flac  0.4672  swami2021-07-03d01t08.flac
     8:15.53       87442700 B   ---   --   ---xx   flac  0.5495  swami2021-07-03d01t09.flac
     3:28.69       36853532 B   ---   --   ---xx   flac  0.5489  swami2021-07-03d01t10.flac
     7:05.28       75035900 B   ---   --   ---xx   flac  0.4791  swami2021-07-03d01t11.flac
     3:07.49       33102092 B   ---   --   ---xx   flac  0.5157  swami2021-07-03d01t12.flac
     3:52.04       40934252 B   ---   --   ---xx   flac  0.4793  swami2021-07-03d01t13.flac
     8:15.06       87332156 B   ---   --   ---xx   flac  0.5258  swami2021-07-03d01t14.flac
     1:35.28       16823900 B   ---   --   ---xx   flac  0.3454  swami2021-07-03d01t15.flac
     5:27.44       57786332 B   ---   --   ---xx   flac  0.4262  swami2021-07-03d02t01.flac
     5:41.11       60178316 B   ---   --   ---xx   flac  0.5148  swami2021-07-03d02t02.flac
     5:48.00       61387244 B   ---   --   ---xx   flac  0.3323  swami2021-07-03d02t03.flac
     4:48.03       50810300 B   ---   --   ---xx   flac  0.4690  swami2021-07-03d02t04.flac
     4:45.04       50283452 B   ---   --   ---xx   flac  0.5510  swami2021-07-03d02t05.flac
     6:20.05       67043804 B   ---   --   ---xx   flac  0.4943  swami2021-07-03d02t06.flac
     6:05.27       64449548 B   ---   --   ---xx   flac  0.5392  swami2021-07-03d02t07.flac
     4:55.31       52110956 B   ---   --   ---xx   flac  0.3742  swami2021-07-03d02t08.flac
     5:10.20       54731084 B   ---   --   ---xx   flac  0.5331  swami2021-07-03d02t09.flac
     4:11.65       44429324 B   ---   --   ---xx   flac  0.3704  swami2021-07-03d02t10.flac
     3:37.71       38445836 B   ---   --   ---xx   flac  0.4418  swami2021-07-03d02t11.flac
     5:15.73       55737740 B   ---   --   ---xx   flac  0.5195  swami2021-07-03d02t12.flac
     3:47.38       40132220 B   ---   --   ---xx   flac  0.4565  swami2021-07-03d02t13.flac
     5:31.19       58433132 B   ---   --   ---xx   flac  0.6059  swami2021-07-03d02t14.flac
     1:05.21       11515436 B   ---   --   ---xx   flac  0.2899  swami2021-07-03d03t01.flac
     5:29.07       58052108 B   ---   --   ---xx   flac  0.4712  swami2021-07-03d03t02.flac
     7:37.54       80741852 B   ---   --   ---xx   flac  0.4108  swami2021-07-03d03t03.flac
     3:32.13       37427420 B   ---   --   ---xx   flac  0.5034  swami2021-07-03d03t04.flac
     3:51.22       40800188 B   ---   --   ---xx   flac  0.4440  swami2021-07-03d03t05.flac
     1:08.68       12155180 B   ---   --   ---xx   flac  0.3522  swami2021-07-03d03t06.flac
   171:26.53     1814576596 B                            0.4806  (35 files)






More information about the bittorrent mailing list