[bittorrent] Frankly Scarlet The Park Tavern Atlanta, Georgia 7/04/2021 (Schoeps CCM4V'[S FOB Z-Man)

Automated Mailer noreply-bt.e at etree.org
Sat Jul 10 01:01:07 UTC 2021


Band:           Other
Torrent Name:   Frankly Scarlet The Park Tavern Atlanta, Georgia 7/04/2021  (Schoeps CCM4V'[S FOB Z-Man)
Uploaded by:    zmanatl
DB Link:        
Details:        http://bt.etree.org/details.php?id=613140

Contact the seeder at http://db.etree.org/zmanatl

If the link to this show does not work, it was probably removed for
being non-trade-friendly.

Description / text file:
-------------------------
Frankly Scarlet
The Park Tavern
Atlanta, Georgia
7/04/2021 

Source: Schoeps CCM4V'S>Lunatec V2>Sound Devices 722 (24/44.1)
FOB/DFC/KFC/ZFC/AARP 18' From Stage, 6 1/2' High
DSP: Sound Devices 722>Sound Forge 10.0>CD Wave>flac(16)
ID3 Tagged In Foobar 2000
Recorded By: Z-Man
Seeded By: Z-Man
A Team Dirty South Recording

Disc I 1st Set

01 Jam >
02 Jack Straw 
03 Deal 
04 Eyes Of The World >
05 Bertha
06 Samson And Delilah 
07 *Run For The Roses
08 Shakedown Street >
09 #St. Stephen
10 @Also Sprach Zarathustra 

Disc II 1st Set Con't

01 Goin' Down The Road Feelin' Bad >
02 US Blues 
2nd Set:
03 Touch Of Grey 
04 Scarlet Begonias >
05 Sneakin' Sally Through The Alley Jam >
06 Fire On The Mountain >
07 Scarlet Begonias Reprise 

Disc III 2nd Set Con't

01 Good Lovin' >
02 Viola Lee Blues 
03 Liberty 
04 Cosmic Charlie >
05 Truckin' >
06 Sugar Magnolia

* First Time Played
# With Star Spangled Banner Tease
@ With Shakedown Street Tease 

Kurt Tompkins - Drums And Vocals
Cassidy Wall - Guitar And Vocals
Jeremy "Jerbo" Foti - Bass
Chris "Critter" Ricker - Guitar And Vocals
Damian Kapcala - Keyboards

frankly2021-07-04d01t01.flac:5776ec0b0afa0e9771390bcf86044df2
frankly2021-07-04d01t02.flac:c514b679975c48c7d5442629bdab81b5
frankly2021-07-04d01t03.flac:2aa76f4cbc8eae47927cde340af190f1
frankly2021-07-04d01t04.flac:aef48ea1327f59c6838c735416908d68
frankly2021-07-04d01t05.flac:11a3d02daeebf11d4d3e37379df548c7
frankly2021-07-04d01t06.flac:3fb5a5b1e0269b87ae1df32401eb804a
frankly2021-07-04d01t07.flac:23f263f0315656b9e6a7aef4dc33c1de
frankly2021-07-04d01t08.flac:b90de0df3f492b5b6ed935d1531cdd84
frankly2021-07-04d01t09.flac:932210dada612b7eedbbfc2d7df4bce0
frankly2021-07-04d01t10.flac:7ab0618c67e0545d2c8d2de35a7f15a8
frankly2021-07-04d02t01.flac:5d09ddb0967d41f5c6551296c23698c1
frankly2021-07-04d02t02.flac:c34ea137bcc2b340ec4616b90108f453
frankly2021-07-04d02t03.flac:d578c072b8803206665616d603375198
frankly2021-07-04d02t04.flac:2682bf74e8d79ad9837e4e44525062c5
frankly2021-07-04d02t05.flac:c349f4dc55e17ce40f02737ac7616c11
frankly2021-07-04d02t06.flac:9c5ab1e5eafcc9b47614384f7fdd9585
frankly2021-07-04d02t07.flac:00ff9fc0747372caf16cd6694bd1917c
frankly2021-07-04d02t08.flac:17f8c98b1bc97e2139bc767df5db5b81
frankly2021-07-04d03t01.flac:1c8df0f5447430ff16e1c80e14b8537a
frankly2021-07-04d03t02.flac:9ebd0600a79aa6eaf3e4ce77f15b7c47
frankly2021-07-04d03t03.flac:7ca5a4b4779e52370481e66a3f99d984
frankly2021-07-04d03t04.flac:8b962334a5c80c764441dae7adfacd15
frankly2021-07-04d03t05.flac:581caf5efa680305955476e90f4962b5
frankly2021-07-04d03t06.flac:5c677e85ebdb444cd1e25b4a2996c70e

 length     expanded size    cdr  WAVE problems  fmt   ratio  filename
     5:10.23       54738140 B   ---   --   ---xx   flac  0.5049  frankly2021-07-04d01t01.flac
     9:29.49      100486892 B   ---   --   ---xx   flac  0.5839  frankly2021-07-04d01t02.flac
     8:13.46       87073436 B   ---   --   ---xx   flac  0.5896  frankly2021-07-04d01t03.flac
    16:51.56      178472156 B   ---   --   ---xx   flac  0.5740  frankly2021-07-04d01t04.flac
     7:54.40       83707724 B   ---   --   ---xx   flac  0.6484  frankly2021-07-04d01t05.flac
     6:56.32       73457708 B   ---   --   ---xx   flac  0.6076  frankly2021-07-04d01t06.flac
     6:08.06       64929356 B   ---   --   ---xx   flac  0.5151  frankly2021-07-04d01t07.flac
     7:17.17       77126828 B   ---   --   ---xx   flac  0.5992  frankly2021-07-04d01t08.flac
     8:30.73       90135740 B   ---   --   ---xx   flac  0.6222  frankly2021-07-04d01t09.flac
     1:51.53       19705100 B   ---   --   ---xx   flac  0.6163  frankly2021-07-04d01t10.flac
    10:05.36      106806716 B   ---   --   ---xx   flac  0.5764  frankly2021-07-04d02t01.flac
     6:33.50       69442844 B   ---   --   ---xx   flac  0.6000  frankly2021-07-04d02t02.flac
    12:06.55      128195804 B   ---   --   ---xx   flac  0.5750  frankly2021-07-04d02t03.flac
     6:45.42       71540828 B   ---   --   ---xx   flac  0.5676  frankly2021-07-04d02t04.flac
    10:55.27      115605548 B   ---   --   ---xx   flac  0.5639  frankly2021-07-04d02t05.flac
     1:16.62       13552268 B   ---   --   ---xx   flac  0.5222  frankly2021-07-04d02t06.flac
    10:18.01      109017596 B   ---   --   ---xx   flac  0.5579  frankly2021-07-04d02t07.flac
     0:33.31        5894156 B   ---   --   ---xx   flac  0.5426  frankly2021-07-04d02t08.flac
    12:22.24      130945292 B   ---   --   ---xx   flac  0.5623  frankly2021-07-04d03t01.flac
     9:15.14       97934972 B   ---   --   ---xx   flac  0.5572  frankly2021-07-04d03t02.flac
     8:29.25       89846444 B   ---   --   ---xx   flac  0.5617  frankly2021-07-04d03t03.flac
     8:00.45       84777884 B   ---   --   ---xx   flac  0.5426  frankly2021-07-04d03t04.flac
     8:32.56       90448556 B   ---   --   ---xx   flac  0.5901  frankly2021-07-04d03t05.flac
     8:15.74       87492092 B   ---   --   ---xx   flac  0.5748  frankly2021-07-04d03t06.flac
   191:55.37     2031334080 B                            0.5755  (24 files)





More information about the bittorrent mailing list