[bittorrent] Tedeschi Trucks Band Westville Music Bowl New Haven, Connecticut 7/7/2021 (Schoeps CCM4V'S Z-Man)

Automated Mailer noreply-bt.e at etree.org
Fri Jul 9 04:31:48 UTC 2021


Band:           Tedeschi Trucks Band
Torrent Name:   Tedeschi Trucks Band Westville Music Bowl New Haven, Connecticut 7/7/2021 (Schoeps CCM4V'S Z-Man)
Uploaded by:    zmanatl
DB Link:        
Details:        http://bt.etree.org/details.php?id=613132

Contact the seeder at http://db.etree.org/zmanatl

If the link to this show does not work, it was probably removed for
being non-trade-friendly.

Description / text file:
-------------------------
Tedeschi Trucks Band
Westville Music Bowl
New Haven, Connecticut
7/7/2021

Source: Schoeps CCM4V'S>Lunatec V2>Sound Devices 722 (24/44.1)
BOB/DFC/KFC/ZFC/AARP Clamped To The Rail Right Behind The Soundboard, 6 1/2' High
DSP: Sound Devices 722>Sound Forge 10.0>CD Wave>flac(16)
ID3 Tagged In Foobar 2000
Recorded By: Z-Man
Seeded By: Z-Man
A Team Dirty South Recording

Disc I 1st Set

01 Anyhow 
02 Don't Let Me Slide 
03 Down Don't Bother Me 
04 Signs, High Times
05 When Will I Begin
06 Made Up Mind
07 Laugh About It 
08 Get What ou Deserve

Disc II 2nd Set

01 Bell Bottom Blues 
02 Why Does Love HaveTo Be So Sad
03 Key To The Highway
04 Looking For Answers
05 Little By Little
06 Shame >
07 Midnight In Harlem
08 Band Introductions
09 I Want More >
10 Soul Sacrifice
Encore:
11 Bound For Glory

Derek Trucks - Guitar
Susan Tedeschi - Guitar And Vocals
Brandon Boonw - Bass 
Gabe Dixon - Keyboards 
Mike Mattison - Voals And Acoustic Guitar
Tyler "The Falcon" Greenwell - Drums

ttb2021-07-07d01t01.flac:566cc36c043932b7dad46534a3d8d459
ttb2021-07-07d01t02.flac:ed3eac256ba9724c3a278b9b50ae9c00
ttb2021-07-07d01t03.flac:68a836b76cd3410760a06b99793577db
ttb2021-07-07d01t04.flac:e0417d2ccb6bb69ba5f12ca1ae902246
ttb2021-07-07d01t05.flac:9ce900e84aac8cd694fa66137467712d
ttb2021-07-07d01t06.flac:135f01a731c8bf89715c65d1e696eb35
ttb2021-07-07d01t07.flac:0255706fd4ab744d2ff9e63bd1aa1ab4
ttb2021-07-07d01t08.flac:8f032f993a1b9035ddd500b833271529
ttb2021-07-07d02t01.flac:2e2d66d45ebfe432b920b2723304a36a
ttb2021-07-07d02t02.flac:b6f7fc175b7783b076f356f3bb52d662
ttb2021-07-07d02t03.flac:4911e12330e5bffc905134b2b07f20ec
ttb2021-07-07d02t04.flac:f44b797ecc22c8024124c02cd2da3be4
ttb2021-07-07d02t05.flac:86769555262366fe8fc105968817e969
ttb2021-07-07d02t06.flac:3c1aa0e74584f5a05a83dd27d5a2800c
ttb2021-07-07d02t07.flac:5b27ee7d3914371e78390e1fb10934ce
ttb2021-07-07d02t08.flac:ddea1e8e4a091fcf5067fa06790dfbcb
ttb2021-07-07d02t09.flac:d9ffb28c7ad707bba356e950d592c084
ttb2021-07-07d02t10.flac:eb3707c62b615c0150c6b8fcafa24cff
ttb2021-07-07d02t11.flac:0825f5750bad45f5eaba8063f7bc7e73

length     expanded size    cdr  WAVE problems  fmt   ratio  filename
     7:00.40       74182124 B   ---   --   ---xx   flac  0.4927  ttb2021-07-07d01t01.flac
     5:27.01       57685196 B   ---   --   ---xx   flac  0.4935  ttb2021-07-07d01t02.flac
     5:47.02       61215548 B   ---   --   ---xx   flac  0.4634  ttb2021-07-07d01t03.flac
     6:47.63       71943020 B   ---   --   ---xx   flac  0.5023  ttb2021-07-07d01t04.flac
     4:28.34       47355212 B   ---   --   ---xx   flac  0.4656  ttb2021-07-07d01t05.flac
     6:06.68       64722380 B   ---   --   ---xx   flac  0.5101  ttb2021-07-07d01t06.flac
     6:38.34       70287212 B   ---   --   ---xx   flac  0.4925  ttb2021-07-07d01t07.flac
     7:02.08       74459660 B   ---   --   ---xx   flac  0.4905  ttb2021-07-07d01t08.flac
     4:47.36       50711516 B   ---   --   ---xx   flac  0.4542  ttb2021-07-07d02t01.flac
     4:23.08       46412060 B   ---   --   ---xx   flac  0.4937  ttb2021-07-07d02t02.flac
     8:33.43       90594380 B   ---   --   ---xx   flac  0.4470  ttb2021-07-07d02t03.flac
     6:59.36       73996316 B   ---   --   ---xx   flac  0.4398  ttb2021-07-07d02t04.flac
     5:26.53       57631100 B   ---   --   ---xx   flac  0.4868  ttb2021-07-07d02t05.flac
    11:55.64      126276572 B   ---   --   ---xx   flac  0.4346  ttb2021-07-07d02t06.flac
     7:28.02       79031948 B   ---   --   ---xx   flac  0.4468  ttb2021-07-07d02t07.flac
     0:34.02        6002348 B   ---   --   ---xx   flac  0.4422  ttb2021-07-07d02t08.flac
    10:52.13      115043420 B   ---   --   ---xx   flac  0.4828  ttb2021-07-07d02t09.flac
     2:28.48       26220140 B   ---   --   ---xx   flac  0.5129  ttb2021-07-07d02t10.flac
    12:25.58      131554460 B   ---   --   ---xx   flac  0.4585  ttb2021-07-07d02t11.flac
   125:13.13     1325324612 B                            0.4715  (19 files)




More information about the bittorrent mailing list