[bittorrent] gd1985-10-26 Tampa SBD Cassette Master 24-bit (NEW)

Automated Mailer noreply-bt.e at etree.org
Thu Jul 8 18:21:20 UTC 2021


Band:           Grateful Dead
Torrent Name:   gd1985-10-26 Tampa SBD Cassette Master 24-bit (NEW)
Uploaded by:    charlie miller
DB Link:        
Details:        http://bt.etree.org/details.php?id=613123

Contact the seeder at http://db.etree.org/charlie miller

If the link to this show does not work, it was probably removed for
being non-trade-friendly.

Description / text file:
-------------------------
Grateful Dead - October 26, 1985
Sun Dome - Tampa, FL

Recording Info: 
SBD > Cassette Master (Sony TC-D5M/Maxell MX90/Dolby B) 

Transfer Info: 
Cassette Master (Nakamichi CR-7A) Tascam DA-3000 (DSF 1-bit/5.6MHz) >
Sound Forge Pro 14 (WAV 24-bit/96k) > DDi Codec (Dolby B) > Izotope RX8 Advanced >
Samplitude Pro X6 Suite > FLAC/24
(1 DVD FLAC)

Patch Info:
Schoeps CMC4/MK41 > PCM (shnid=128703) supplies:
Space (0:00 - 0:28)

All Transfers and Mastering by Charlie Miller
charliemiller87 at earthlink.net
July 5, 2021

Notes:
-- There was a very loud buzz/hum in the first set that I removed 
-- Thanks to Joani Walker and Paul Scotton for the cassettes
-- Thanks to Jim Blackwood for his assistance with this project
-- Thanks to Doug Oade, Jim Wise and Dave Usborne for the patch source

Set 1:
01 - Tuning
02 - Gimme Some Lovin' >
03 - Greatest Story Ever Told
04 - Dupree's Diamond Blues
05 - C.C. Rider
06 - Stagger Lee
07 - Me And My Uncle >
08 - Big River
09 - Big Railroad Blues >
10 - Looks Like Rain >
11 - Don't Ease Me In

Set 2:
12 - Tuning
13 - China Cat Sunflower >
14 - I Know You Rider
15 - Man Smart (Woman Smarter) >
16 - He's Gone >
17 - Don't Need Love >
18 - Drums >
19 - Space >
20 - Comes A Time >
21 - Throwing Stones >
22 - Goin' Down The Road Feeling Bad >
23 - One More Saturday Night

Encore:
24 - Tuning
25 - In The Midnight Hour


SHNTOOL OUTPUT:
    length     expanded size    cdr  WAVE problems  fmt   ratio  filename
     0:36.957      21287264 B   cxx   --   ---xx   flac  0.6514  01 Tuning.flac
     4:22.850     151401482 B   cxx   --   ---xx   flac  0.6980  02 Gimme Some Lovin'.flac
     4:48.569     166215584 B   cxx   --   ---xx   flac  0.6846  03 Greatest Story Ever Told.flac
     7:43.291     266855732 B   cxx   --   ---xx   flac  0.6896  04 Dupree's Diamond Blues.flac
     8:19.577     287756648 B   cxx   --   ---xx   flac  0.6965  05 CC Rider.flac
     6:21.350     219657920 B   cxx   --   ---xx   flac  0.6951  06 Stagger Lee.flac
     3:02.551     105149522 B   cxx   --   ---xx   flac  0.6987  07 Me And My Uncle.flac
     5:07.342     177029186 B   cxx   --   ---xx   flac  0.7070  08 Big River.flac
     3:43.760     128885942 B   cxx   --   ---xx   flac  0.7034  09 Big Railroad Blues.flac
     8:49.536     305012948 B   cxx   --   ---xx   flac  0.6855  10 Looks Like Rain.flac
     3:09.589     109203494 B   cxx   --   ---xx   flac  0.7013  11 Don't Ease Me In.flac
     0:49.590      28564076 B   cxx   --   ---xx   flac  0.6399  12 Tuning.flac
     4:56.439     170749148 B   cxx   --   ---xx   flac  0.6831  13 China Cat Sunflower.flac
     7:10.879     248186504 B   cxx   --   ---xx   flac  0.6850  14 I Know You Rider.flac
     7:25.087     256370408 B   cxx   --   ---xx   flac  0.6822  15 Man Smart (Woman Smarter).flac
    11:11.814     386965010 B   cxx   --   ---xx   flac  0.6792  16 He's Gone.flac
     6:20.677     219270278 B   cxx   --   ---xx   flac  0.6776  17 Don't Need Love.flac
     5:53.081     203374448 B   cxx   --   ---xx   flac  0.6674  18 Drums.flac
     6:31.839     225699194 B   cxx   --   ---xx   flac  0.6702  19 Space.flac
     6:26.055     222367508 B   cxx   --   ---xx   flac  0.6882  20 Comes A Time.flac
     8:59.555     310783682 B   cxx   --   ---xx   flac  0.6795  21 Throwing Stones.flac
     5:47.054     199903388 B   cxx   --   ---xx   flac  0.6794  22 Goin' Down The Road Feeling Bad.flac
     4:43.812     163475624 B   cxx   --   ---xx   flac  0.6790  23 One More Saturday Night.flac
     1:20.066      46118048 B   cxx   --   ---xx   flac  0.6488  24 Tuning.flac
     5:01.757     173812064 B   cxx   --   ---xx   flac  0.6884  25 In The Midnight Hour.flac
   138:43.080    4794095102 B                            0.6851  (25 files)




More information about the bittorrent mailing list