[bittorrent] Tedeschi Trucks Band Westville Music Bowl New Haven, Connecticut 7/6/2021 (Schoeps CCM4V'S Z-Man FOB)

Automated Mailer noreply-bt.e at etree.org
Wed Jul 7 14:37:05 UTC 2021


Band:           Tedeschi Trucks Band
Torrent Name:   Tedeschi Trucks Band Westville Music Bowl New Haven, Connecticut 7/6/2021 (Schoeps CCM4V'S Z-Man FOB)
Uploaded by:    zmanatl
DB Link:        
Details:        http://bt.etree.org/details.php?id=613109

Contact the seeder at http://db.etree.org/zmanatl

If the link to this show does not work, it was probably removed for
being non-trade-friendly.

Description / text file:
-------------------------
Tedeschi Trucks Band
Westville Music Bowl
New Haven, Connecticut
7/6/2021

Source: Schoeps CCM4V'S>Lunatec V2>Sound Devices 722 (24/44.1)
FOB/DFC/KFC/ZFC/AARP In The Soundboard Tent, 6 1/2' High
DSP: Sound Devices 722>Sound Forge 10.0>CD Wave>flac(16)
ID3 Tagged In Foobar 2000
Recorded By: Z-Man
Seeded By: Z-Man
A Team Dirty South Recording

Disc I 

01 Statesboro Blues
02 Done Somebody Wrong
03 Do I Look Worried 
04 Part Of Me 
05 Life Is Crazy
06 Don't Drift Away
07 Just As Strange
08 Just Won't Burn
09 Let Me Get By >
10 Soul Serenade

Disc II 

01 Banter/Band Introductions
02 Angel From Montgomery >
03 Sugaree >
04 Angel From Mpontgomery
05 That Did It
06 Dreams >
07 My Favorite Things Jam >
08 The Storm >
09 Drums And Bass Jam >
10 Jam >
11 Whipping Post Reprise
Encore:
12 Thanks
13 The Feeling Music Brings

Derek Trucks - Guitar
Susan Tedeschi - Guitar And Vocals
Brandon Boonw - Bass 
Gabe Dixon - Keyboards 
Mike Mattison - Voals
Tyler "The Falcon" Greenwell - Drums

ttb2021-07-06d01t01.flac:8b963ffe4fde57b638542ef55ee12f3e
ttb2021-07-06d01t02.flac:39d51d85238f5d320ecd13aebacf0b0f
ttb2021-07-06d01t03.flac:b5bf30619c34a258d354130d02a1668a
ttb2021-07-06d01t04.flac:ba6d426171b1f21c745d47c3432d0a5a
ttb2021-07-06d01t05.flac:f50a3d876bf9fc9fdd754e7b8708fa72
ttb2021-07-06d01t06.flac:4706859d02848e2b41a48376522a3ecc
ttb2021-07-06d01t07.flac:94ae35a2c713c61fbddde737f31ce668
ttb2021-07-06d01t08.flac:12547756e83b903cf05e8930a25a7eb2
ttb2021-07-06d01t09.flac:c2970fa6078056e5f115dc13f001aac6
ttb2021-07-06d01t10.flac:fa959954b9ffb52285b05c410fecd209
ttb2021-07-06d02t01.flac:ca4f0a1ef58873e3d72826572b312e10
ttb2021-07-06d02t02.flac:68f0fb3f551ff86202111291ad0433d1
ttb2021-07-06d02t03.flac:64c7c7083d61b57e43a32b60a6d576df
ttb2021-07-06d02t04.flac:5d3263f2fbef1b823d6aed94912f14db
ttb2021-07-06d02t05.flac:a9637676d386ed56bd94d49873f3816f
ttb2021-07-06d02t06.flac:2bba4bd8caa1fc02b69fcd926fe04dba
ttb2021-07-06d02t07.flac:50fec5e000ad61c886fcb1eaaabea9f5
ttb2021-07-06d02t08.flac:633587f9748cc223b6ef23ff62b4bfa7
ttb2021-07-06d02t09.flac:3d59c0f2253fd66fa9c4e75fd47e1b00
ttb2021-07-06d02t10.flac:e16abbd1bf32c37f9e527ce61c0e5245
ttb2021-07-06d02t11.flac:2b106f3d5d55b08e3d8532d35323c224
ttb2021-07-06d02t12.flac:d7f4b40377ae0dcfc752fa04b4e32d9d
ttb2021-07-06d02t13.flac:6fa32794fa4835991b4db2e702a96319

length     expanded size    cdr  WAVE problems  fmt   ratio  filename
     4:40.02       49396748 B   ---   --   ---xx   flac  0.4952  ttb2021-07-06d01t01.flac
     5:30.69       58374332 B   ---   --   ---xx   flac  0.4733  ttb2021-07-06d01t02.flac
     6:19.27       66919148 B   ---   --   ---xx   flac  0.5119  ttb2021-07-06d01t03.flac
     9:16.15       98113724 B   ---   --   ---xx   flac  0.4960  ttb2021-07-06d01t04.flac
     4:22.15       46252124 B   ---   --   ---xx   flac  0.4767  ttb2021-07-06d01t05.flac
     7:12.56       76336556 B   ---   --   ---xx   flac  0.4913  ttb2021-07-06d01t06.flac
     5:43.48       60618140 B   ---   --   ---xx   flac  0.5099  ttb2021-07-06d01t07.flac
     6:48.30       72041804 B   ---   --   ---xx   flac  0.4733  ttb2021-07-06d01t08.flac
     7:22.22       78020588 B   ---   --   ---xx   flac  0.4730  ttb2021-07-06d01t09.flac
     5:28.20       57906284 B   ---   --   ---xx   flac  0.4863  ttb2021-07-06d01t10.flac
     1:06.19       11687132 B   ---   --   ---xx   flac  0.3702  ttb2021-07-06d02t01.flac
     6:24.15       67772924 B   ---   --   ---xx   flac  0.4388  ttb2021-07-06d02t02.flac
     1:44.48       18458540 B   ---   --   ---xx   flac  0.4901  ttb2021-07-06d02t03.flac
     2:07.17       22442828 B   ---   --   ---xx   flac  0.4090  ttb2021-07-06d02t04.flac
     7:17.13       77117420 B   ---   --   ---xx   flac  0.4884  ttb2021-07-06d02t05.flac
    10:59.34      116327612 B   ---   --   ---xx   flac  0.4928  ttb2021-07-06d02t06.flac
     1:35.11       16783916 B   ---   --   ---xx   flac  0.4056  ttb2021-07-06d02t07.flac
     5:12.19       55081532 B   ---   --   ---xx   flac  0.5206  ttb2021-07-06d02t08.flac
     1:45.42       18620828 B   ---   --   ---xx   flac  0.3861  ttb2021-07-06d02t09.flac
     3:35.59       38064812 B   ---   --   ---xx   flac  0.4701  ttb2021-07-06d02t10.flac
     6:21.55       67337804 B   ---   --   ---xx   flac  0.5018  ttb2021-07-06d02t11.flac
     0:33.09        5842412 B   ---   --   ---xx   flac  0.3758  ttb2021-07-06d02t12.flac
     8:18.23       87901340 B   ---   --   ---xx   flac  0.4973  ttb2021-07-06d02t13.flac
   119:44.68     1267418548 B                            0.4830  (23 files)






More information about the bittorrent mailing list