[bittorrent] The Mike Veal Band Napoleo's Grill Decatur, Georgia 7/2/2021 (Schoeps CCM4V'S FOB)

Automated Mailer noreply-bt.e at etree.org
Sun Jul 4 18:51:20 UTC 2021


Band:           Other
Torrent Name:   The Mike Veal Band Napoleo's Grill Decatur, Georgia 7/2/2021 (Schoeps CCM4V'S FOB)
Uploaded by:    zmanatl
DB Link:        
Details:        http://bt.etree.org/details.php?id=613097

Contact the seeder at http://db.etree.org/zmanatl

If the link to this show does not work, it was probably removed for
being non-trade-friendly.

Description / text file:
-------------------------
The Mike Veal Band
Napoleo's Grill
Decatur, Georgia
7/2/2021

Source: Schoeps CCM4V'S>Lunatec V2>Sound Devices 722 (24/44.1)
FOB/DFC/KFC/ZFC/AARP 4' From Stage, 6 1/2' High
DSP: Sound Devices 722>Sound Forge 10.0>CD Wave>flac(16)
ID3 Tagged In Foobar 2000
Recorded By: Z-Man
Seeded By: Z-Man
A Team Dirty South Recording

Disc I 

01 Up Against The Wall
02 It's A Laugh
03 Sultans Of Swing
04 Due For Love
05 Simple Man 
06 Georgia Rhythm
07 Who's That Lady 
08 Lowdown

Disc II 

01 On Broadway
02 25 Or 6 To 4 > 
03 Does Anybody Really Know What Time It Is
04 Dixie Chicken
05 Alabama Rock And Roll
06 The South's Gonna Do It 
07 Pride And Joy
08 Hot 'Lanta >
09 Drum Solo >
10 Hot 'Lanta

Mike Veal - Vocals
Chris Blackwell - Guitar
Tom Gross - Keyboards And Vocals
Gregg High - Bass
Jack Jones - Drums

mikeveal2021-07-02d01t01.flac:e5c085135ce8d9bf5c3ee3133a0d3d1e
mikeveal2021-07-02d01t02.flac:df74970fc148149d81343383106ace20
mikeveal2021-07-02d01t03.flac:dc2cac993fc475b5d8e7408f30369993
mikeveal2021-07-02d01t04.flac:fc6329bff3351fe04f16028c0438a29b
mikeveal2021-07-02d01t05.flac:f921f7609345fec8a08eed2cfa1278ee
mikeveal2021-07-02d01t06.flac:f7f1e91ac474201594f69a64fe909de4
mikeveal2021-07-02d01t07.flac:daaed35fb50f4bd0dfbf696f4a74a485
mikeveal2021-07-02d01t08.flac:f88b6a42ec394a90b35c9b6bd443b42c
mikeveal2021-07-02d02t01.flac:fbaafc7213d24c7e67f9cece009c6337
mikeveal2021-07-02d02t02.flac:2fedef2dda9c1866c6b3331a5becedfe
mikeveal2021-07-02d02t03.flac:7bf90889c384f2e0051a5691cd3fdcdb
mikeveal2021-07-02d02t04.flac:29dc2873a8a7157a4835a07123a92e96
mikeveal2021-07-02d02t05.flac:ee1dc9cf48201e5801e7b93c62e4ced4
mikeveal2021-07-02d02t06.flac:c0d7617146283e0a787eee0f49a8a0d5
mikeveal2021-07-02d02t07.flac:421a31ed2467ece4ff6fe6538478ee9f
mikeveal2021-07-02d02t08.flac:cfa2639f9c90378e86934d5281a30247
mikeveal2021-07-02d02t09.flac:03f27c5029f8ce9df6d95c16cc326c87
mikeveal2021-07-02d02t10.flac:d92deeb98a9b8e10ce91ab3076a760b6

 length     expanded size    cdr  WAVE problems  fmt   ratio  filename
     4:32.14       48013772 B   ---   --   ---xx   flac  0.5296  mikeveal2021-07-02d01t01.flac
     4:54.00       51861644 B   ---   --   ---xx   flac  0.4852  mikeveal2021-07-02d01t02.flac
     8:45.18       92652380 B   ---   --   ---xx   flac  0.4872  mikeveal2021-07-02d01t03.flac
     5:43.27       60568748 B   ---   --   ---xx   flac  0.4818  mikeveal2021-07-02d01t04.flac
     5:17.47       56029388 B   ---   --   ---xx   flac  0.4710  mikeveal2021-07-02d01t05.flac
     5:18.18       56137580 B   ---   --   ---xx   flac  0.5080  mikeveal2021-07-02d01t06.flac
     4:17.65       45487724 B   ---   --   ---xx   flac  0.5119  mikeveal2021-07-02d01t07.flac
     5:53.61       62412716 B   ---   --   ---xx   flac  0.5450  mikeveal2021-07-02d01t08.flac
     5:21.01       56626796 B   ---   --   ---xx   flac  0.4488  mikeveal2021-07-02d02t01.flac
     4:45.09       50295212 B   ---   --   ---xx   flac  0.5963  mikeveal2021-07-02d02t02.flac
     2:51.51       30284396 B   ---   --   ---xx   flac  0.5701  mikeveal2021-07-02d02t03.flac
     9:55.48      105070940 B   ---   --   ---xx   flac  0.5082  mikeveal2021-07-02d02t04.flac
     5:29.34       58115612 B   ---   --   ---xx   flac  0.4829  mikeveal2021-07-02d02t05.flac
     3:27.12       36543068 B   ---   --   ---xx   flac  0.5404  mikeveal2021-07-02d02t06.flac
     3:56.04       41639852 B   ---   --   ---xx   flac  0.4657  mikeveal2021-07-02d02t07.flac
     5:06.53       54103100 B   ---   --   ---xx   flac  0.5770  mikeveal2021-07-02d02t08.flac
     1:35.38       16847420 B   ---   --   ---xx   flac  0.5673  mikeveal2021-07-02d02t09.flac
     2:33.57       27123308 B   ---   --   ---xx   flac  0.5433  mikeveal2021-07-02d02t10.flac
    89:44.32      949813656 B                            0.5116  (18 files)




More information about the bittorrent mailing list