[bittorrent] The Travelin' McCourys - Late Show Eddie's Attic Decatur, Georgia 7/1/2021 (Schoeps CCM4V'S FOB Z-Man)

Automated Mailer noreply-bt.e at etree.org
Sun Jul 4 04:43:20 UTC 2021


Band:           Other
Torrent Name:   The Travelin' McCourys - Late Show Eddie's Attic  Decatur, Georgia 7/1/2021 (Schoeps CCM4V'S FOB Z-Man)
Uploaded by:    zmanatl
DB Link:        
Details:        http://bt.etree.org/details.php?id=613083

Contact the seeder at http://db.etree.org/zmanatl

If the link to this show does not work, it was probably removed for
being non-trade-friendly.

Description / text file:
-------------------------
The Travelin' McCourys - Late Show
Eddie's Attic 
Decatur, Georgia
7/1/2021

Source: Schoeps CCM4V'S>Lunatec V2>Sound Devices 722 (24/44.1)
FOB/DFC/KFC/ZFC/AARP 9' From Stage, 7 1/2' High
DSP: Sound Devices 722>Sound Forge 10.0>CD Wave>flac(16)
ID3 Tagged In Foobar 2000
Recorded By: Z-Man
Seeded By: Z-Man
A Team Dirty South Recording

Disc I 

01 Greeting/Introduction/Banter
02 ?
03 Love Please Come Home >
04 Instrumental
05 ?
06 No End Of Love
07 Midnight Flyer
08 I Live On The Battlefield >
09 ?
10 Your Lovin' Arms
11 ? 
12 Boulder Line >
13 ?


Disc II 

01 St. Jmes Hospital
02 Let Her Go
03 Bird Song 
04 Cumberland Blues
Encore:
05 Thanks
06 Southbound

Ronnie McCoury - Mandolin And Vocals
Rob McCoury - BanJo
Jason Carter - Fiddle And Vocals
Cody Kilby - Guitar 
Akan Bartram - Bass And Vocals 

thetravelin2021-07-01lated01t01.flac:ae59f6920043bd3a094c6676350e8313
thetravelin2021-07-01lated01t02.flac:a6775219395f12a49c7ab520788b3ac3
thetravelin2021-07-01lated01t03.flac:a7d5dd3241eb170d05d371f5674005c8
thetravelin2021-07-01lated01t04.flac:7a824ca1ebcdc6620910a838cd418072
thetravelin2021-07-01lated01t05.flac:164255cb26ea5eec35b18e495d9a929c
thetravelin2021-07-01lated01t06.flac:77c5a83fa8287c8122da14d69aad82fb
thetravelin2021-07-01lated01t07.flac:a4879d6955b3c4e7296b7f52f5d70516
thetravelin2021-07-01lated01t08.flac:416c5ca88be85ebc9ef452fa108e7e65
thetravelin2021-07-01lated01t09.flac:697137085e2d4a1becb103ba75269812
thetravelin2021-07-01lated01t10.flac:39a48ff5bdca3f4e7d24ee766e2a1577
thetravelin2021-07-01lated01t11.flac:f009ea879da3befb90f50693e0a587c3
thetravelin2021-07-01lated01t12.flac:daa857c35c4d3b97e4c57f0e0b240cfd
thetravelin2021-07-01lated01t13.flac:63904b16d646779e0e6ccb32d3660ee4
thetravelin2021-07-01lated02t01.flac:46de163a50f5c4691603dc1f795352ab
thetravelin2021-07-01lated02t02.flac:d595ddc32d57739fc06ceb9484c05867
thetravelin2021-07-01lated02t03.flac:12c3f59ae888c789696f20eceaf40cd4
thetravelin2021-07-01lated02t04.flac:6478419ea7cf2c66b629f5ebcd5d67d9
thetravelin2021-07-01lated02t05.flac:c22560ba19dd4cf43c8998ec4d18fd5a
thetravelin2021-07-01lated02t06.flac:ddbc28b5ab7c034d01172ad33b281682

length     expanded size    cdr  WAVE problems  fmt   ratio  filename
     2:25.60       25719164 B   ---   --   ---xx   flac  0.3788  thetravelin2021-07-01lated01t01.flac
     2:50.00       29988044 B   ---   --   ---xx   flac  0.5110  thetravelin2021-07-01lated01t02.flac
     2:53.04       30526652 B   ---   --   ---xx   flac  0.5075  thetravelin2021-07-01lated01t03.flac
     3:03.61       32424716 B   ---   --   ---xx   flac  0.5112  thetravelin2021-07-01lated01t04.flac
     6:02.31       63929756 B   ---   --   ---xx   flac  0.4794  thetravelin2021-07-01lated01t05.flac
     4:39.59       49354412 B   ---   --   ---xx   flac  0.5105  thetravelin2021-07-01lated01t06.flac
     3:18.44       35030732 B   ---   --   ---xx   flac  0.5065  thetravelin2021-07-01lated01t07.flac
     4:52.58       51645260 B   ---   --   ---xx   flac  0.4914  thetravelin2021-07-01lated01t08.flac
     5:03.39       53540972 B   ---   --   ---xx   flac  0.4687  thetravelin2021-07-01lated01t09.flac
     4:02.61       42832316 B   ---   --   ---xx   flac  0.4852  thetravelin2021-07-01lated01t10.flac
     4:06.40       43488524 B   ---   --   ---xx   flac  0.4840  thetravelin2021-07-01lated01t11.flac
     3:10.63       33664220 B   ---   --   ---xx   flac  0.4892  thetravelin2021-07-01lated01t12.flac
     3:10.24       33572492 B   ---   --   ---xx   flac  0.4913  thetravelin2021-07-01lated01t13.flac
    16:13.48      171750140 B   ---   --   ---xx   flac  0.4581  thetravelin2021-07-01lated02t01.flac
     6:53.42       72952028 B   ---   --   ---xx   flac  0.4685  thetravelin2021-07-01lated02t02.flac
    10:16.21      108711836 B   ---   --   ---xx   flac  0.4481  thetravelin2021-07-01lated02t03.flac
     5:17.62       56064668 B   ---   --   ---xx   flac  0.5270  thetravelin2021-07-01lated02t04.flac
     0:50.50        8937644 B   ---   --   ---xx   flac  0.4142  thetravelin2021-07-01lated02t05.flac
     5:23.29       57045452 B   ---   --   ---xx   flac  0.5013  thetravelin2021-07-01lated02t06.flac
    94:35.46     1001179028 B                            0.4788  (19 files)




More information about the bittorrent mailing list