[bittorrent] The Travelin' McCourys Eddie's Attic Decatur, Georgia 7/1/2021 (Schoeps CCM4V'S FOB)

Automated Mailer noreply-bt.e at etree.org
Fri Jul 2 18:54:08 UTC 2021


Band:           Other
Torrent Name:   The Travelin' McCourys Eddie's Attic  Decatur, Georgia 7/1/2021 (Schoeps CCM4V'S FOB)
Uploaded by:    zmanatl
DB Link:        
Details:        http://bt.etree.org/details.php?id=613071

Contact the seeder at http://db.etree.org/zmanatl

If the link to this show does not work, it was probably removed for
being non-trade-friendly.

Description / text file:
-------------------------
The Travelin' McCourys
Eddie's Attic 
Decatur, Georgia
7/1/2021

Source: Schoeps CCM4V'S>Lunatec V2>Sound Devices 722 (24/44.1)
FOB/DFC/KFC/ZFC/AARP 9' From Stage, 7 1/2' High
DSP: Sound Devices 722>Sound Forge 10.0>CD Wave>flac(16)
ID3 Tagged In Foobar 2000
Recorded By: Z-Man
Seeded By: Z-Man
A Team Dirty South Recording

Disc I 

01 Greeting/Introduction/Banter
02 Passin' Through 
03 Instrumental 
04 Somebody's Gonna Pay 
05 Lonesome, Ornery, And Mean
06 The Hardest Heart 
07 The Freedom Blues 
08 Welcome You
09 Why Did You Wander
10 White Wheeled Limosine >
11 Long Black Veil

Disc II 

01 Tight Tonight >
02 BlackJack 
03 Brown-Eyed Women 
04 Midnight Moonlight
05 West L A Fadeaway
06 ?
Encore:
07 Thanks/Band Introductions
08 I'm Goin' Back To Ol' Kentucky 

Ronnie McCoury - Mandolin And Vocals
Rob McCoury - BanJo
Jason Carter - Fiddle And Vocals
Cody Kilby - Guitar 
Akan Bartram - Bass And Vocals 

thetravelin2021-07-01d01t01.flac:6744d0a06c4d9f19a085eea740ab63c2
thetravelin2021-07-01d01t02.flac:b3f0e2aef01fc65f0d632029cc16ece7
thetravelin2021-07-01d01t03.flac:4021a4c9ae2306cb1a8d2b35020c4cf8
thetravelin2021-07-01d01t04.flac:6f6b73a55ad17ae6ad44f4e657b4c64c
thetravelin2021-07-01d01t05.flac:1376bdd89993face07d4225b7c39f729
thetravelin2021-07-01d01t06.flac:4695b3cf60d69133a0782c523c739b81
thetravelin2021-07-01d01t07.flac:c5268d43bb19bc08c848270a1f209e17
thetravelin2021-07-01d01t08.flac:ee7af25c79bb657469b286a366725430
thetravelin2021-07-01d01t09.flac:bd04d38387856338ad37531ff52ad88a
thetravelin2021-07-01d01t10.flac:1947df3ba742a09c32b29cbf13c7556d
thetravelin2021-07-01d01t11.flac:02501dc291f0fc640fe6270cebef6ae5
thetravelin2021-07-01d02t01.flac:00c7e5304c05c6e82af8ed31049b2566
thetravelin2021-07-01d02t02.flac:f00e19532836f145f895ebb0dba06d7f
thetravelin2021-07-01d02t03.flac:bfc7d8cda723ed9fc34fbc1edf9cae67
thetravelin2021-07-01d02t04.flac:1131d8df3e21b2ee6cc0136dcea81d92
thetravelin2021-07-01d02t05.flac:96d8c07d6c3dae39052c9f42c2aa5db3
thetravelin2021-07-01d02t06.flac:9d9fae74ea0c8738e0aeba21493d426c
thetravelin2021-07-01d02t07.flac:a9091f432119ac27e454811fbac096c4
thetravelin2021-07-01d02t08.flac:e26ab2bf8e80ec48af9cd0fb9c9afb83

 length     expanded size    cdr  WAVE problems  fmt   ratio  filename
     2:34.42       27264428 B   ---   --   ---xx   flac  0.3807  thetravelin2021-07-01d01t01.flac
     5:17.63       56067020 B   ---   --   ---xx   flac  0.4964  thetravelin2021-07-01d01t02.flac
     2:35.35       27424364 B   ---   --   ---xx   flac  0.5152  thetravelin2021-07-01d01t03.flac
     2:44.49       29044892 B   ---   --   ---xx   flac  0.5167  thetravelin2021-07-01d01t04.flac
     8:03.67       85358828 B   ---   --   ---xx   flac  0.4904  thetravelin2021-07-01d01t05.flac
     5:01.26       53157596 B   ---   --   ---xx   flac  0.4740  thetravelin2021-07-01d01t06.flac
     4:06.20       43441484 B   ---   --   ---xx   flac  0.4962  thetravelin2021-07-01d01t07.flac
     4:55.33       52115660 B   ---   --   ---xx   flac  0.4856  thetravelin2021-07-01d01t08.flac
     4:17.29       45403052 B   ---   --   ---xx   flac  0.5299  thetravelin2021-07-01d01t09.flac
     5:59.43       63428780 B   ---   --   ---xx   flac  0.4696  thetravelin2021-07-01d01t10.flac
     3:43.69       39499532 B   ---   --   ---xx   flac  0.4950  thetravelin2021-07-01d01t11.flac
     2:35.34       27422012 B   ---   --   ---xx   flac  0.5034  thetravelin2021-07-01d02t01.flac
     3:09.39       33431372 B   ---   --   ---xx   flac  0.5163  thetravelin2021-07-01d02t02.flac
     5:28.16       57896876 B   ---   --   ---xx   flac  0.5013  thetravelin2021-07-01d02t03.flac
    12:19.30      130430204 B   ---   --   ---xx   flac  0.4933  thetravelin2021-07-01d02t04.flac
     6:43.00       71089244 B   ---   --   ---xx   flac  0.4705  thetravelin2021-07-01d02t05.flac
    11:13.11      118743116 B   ---   --   ---xx   flac  0.5285  thetravelin2021-07-01d02t06.flac
     0:30.21        5341436 B   ---   --   ---xx   flac  0.4877  thetravelin2021-07-01d02t07.flac
     5:02.41       53369276 B   ---   --   ---xx   flac  0.5246  thetravelin2021-07-01d02t08.flac
    96:21.68     1019929172 B                            0.4960  (19 files)






More information about the bittorrent mailing list