[bittorrent] gr8FL dude & Token Rhyme Ryan Marcus' House Sandy Springs, Georgia 6/30/2021 (Schoeps CCM4V'S FOB)

Automated Mailer noreply-bt.e at etree.org
Thu Jul 1 16:13:30 UTC 2021


Band:           Other
Torrent Name:   gr8FL dude & Token Rhyme Ryan Marcus' House Sandy Springs, Georgia 6/30/2021 (Schoeps CCM4V'S FOB)
Uploaded by:    zmanatl
DB Link:        
Details:        http://bt.etree.org/details.php?id=613066

Contact the seeder at http://db.etree.org/zmanatl

If the link to this show does not work, it was probably removed for
being non-trade-friendly.

Description / text file:
-------------------------
gr8FL dude & Token Rhyme
Ryan Marcus' House
Sandy Springs, Georgia
6/30/2021

Source: Schoeps CCM4V'S>Lunatec V2>Sound Devices 722 (24/44.1)
FOB/DFC/KFC/ZFC/AARP 8' From Stage, 6 1/2' High
DSP: Sound Devices 722>Sound Forge 10.0>CD Wave>flac(16)
ID3 Tagged In Foobar 2000
Recorded By: Z-Man
Seeded By: Z-Man
A Team Dirty South Recording

Disc I 

01 Mississippi Half-Step, Uptown Toodeloo 
02 Here Comes Sunshine 
03 Mama Tried 
04 Hey Pockey Way 
05 Brown-Eyed Women 
06 They Love Each Other 
07 Ramble On Rose 
08 Terrapin Station >
09 Playin' In The Band

Lewis Newmark - Guitar And Vocals
Craig Neely - Guitar And Vocals
Tommy Jones - Bass 
Diane Rabson - Keyboards And Vocals
Ryan Marcus - Drums

gr8fl2021-06-30d01t01.flac:4e6becc51828ba26111d00cd8b2db615
gr8fl2021-06-30d01t02.flac:f065c11d3d4210e9f457125ed138625d
gr8fl2021-06-30d01t03.flac:879c0443b4a801f035743abe2b58b9e1
gr8fl2021-06-30d01t04.flac:b9c8be8ef691209afdbc7ca257929af7
gr8fl2021-06-30d01t05.flac:60c41ba2f748a3f006f3d00ef2cc14b9
gr8fl2021-06-30d01t06.flac:ab1a71f7444a1954291be2b57cc9fb1d
gr8fl2021-06-30d01t07.flac:54605952baeb53b799fddf282ec0def0
gr8fl2021-06-30d01t08.flac:284ebab14c667625de21cdc401864a89
gr8fl2021-06-30d01t09.flac:3714d2a4d36ebfdf8b6fb9e3b21a0de5

length     expanded size    cdr  WAVE problems  fmt   ratio  filename
    10:15.07      108502508 B   ---   --   ---xx   flac  0.5679  gr8fl2021-06-30d01t01.flac
     7:26.10       78697964 B   ---   --   ---xx   flac  0.5588  gr8fl2021-06-30d01t02.flac
     3:15.62       34543868 B   ---   --   ---xx   flac  0.5098  gr8fl2021-06-30d01t03.flac
     7:46.60       82343564 B   ---   --   ---xx   flac  0.5450  gr8fl2021-06-30d01t04.flac
     6:31.35       69054764 B   ---   --   ---xx   flac  0.5420  gr8fl2021-06-30d01t05.flac
     9:19.67       98765228 B   ---   --   ---xx   flac  0.5108  gr8fl2021-06-30d01t06.flac
     7:50.50       83025644 B   ---   --   ---xx   flac  0.5316  gr8fl2021-06-30d01t07.flac
    11:25.32      120909308 B   ---   --   ---xx   flac  0.5426  gr8fl2021-06-30d01t08.flac
    12:07.34      128322812 B   ---   --   ---xx   flac  0.5640  gr8fl2021-06-30d01t09.flac
    75:58.57      804165660 B                            0.5447  (9 files)









More information about the bittorrent mailing list