[bittorrent] The Z-Man's Jam Diane And John Rabson's House Roswell, Georgia 6/29/2021 (Schoeps CCM4V'S FOB)

Automated Mailer noreply-bt.e at etree.org
Thu Jul 1 03:53:30 UTC 2021


Band:           Other
Torrent Name:   The Z-Man's Jam Diane And John Rabson's House Roswell, Georgia 6/29/2021 (Schoeps CCM4V'S FOB)
Uploaded by:    zmanatl
DB Link:        
Details:        http://bt.etree.org/details.php?id=613065

Contact the seeder at http://db.etree.org/zmanatl

If the link to this show does not work, it was probably removed for
being non-trade-friendly.

Description / text file:
-------------------------
The Z-Man's Jam
Diane And John Rabson's House
Roswell, Georgia
6/29/2021

Source: Schoeps CCM4V'S>Lunatec V2>Sound Devices 722 (24/44.1)
FOB/DFC/KFC/ZFC/AARP 8' From Stage, 6 1/2' High
DSP: Sound Devices 722>Sound Forge 10.0>CD Wave>flac(16)
ID3 Tagged In Foobar 2000
Recorded By: Z-Man
Seeded By: Z-Man
A Team Dirty South Recording

Disc I 1st Set
reet >
01 Greeting And Band Introductions By The Z-Man
02 Shakedown Street >
03 *Bertha 
04 Come Together 
05 Althea
06 #Panama Red 
07 Ramble On Rose 
08 Cortez The Killer 
09 Scarlet Begonias >
10 #Franklin's Tower

Disc II 2nd Set

01 Big Railroad Blues
02 *Here Comes Sunshne 
03 *Cumberland Blues 
04 Truckin' >
05 *Eyes Of The World >
06 *Goin' Down The Road Feelin' Bad >
07 We Bid You Goodnight 
08 Band Introductions/Outro By The Z-Man

* With Z-Man On Vocals
# With Z-Man on Percussion And Vocals

Russell "RB" Brown - Guitar And Vocals
Ryan Collins - Guitar And Vocals
Malcom Fields - Bass And Vocals 
Diane Rabson - Keyboards And Vocals
Ryan Marcus - Drums

thezmans2021-06-29d01t01.flac:74612a8adca2238e261aac9e6010dc27
thezmans2021-06-29d01t02.flac:586f7a4637aff03a70d4eef92b287395
thezmans2021-06-29d01t03.flac:94384d63a34d5f4f35e0a7c2c30a175c
thezmans2021-06-29d01t04.flac:ddda921e72b7efbecc9a92480e0201e8
thezmans2021-06-29d01t05.flac:a79ba4bfea0edee369847ab9ec0d3f21
thezmans2021-06-29d01t06.flac:059b70832fbb9b5099bbbf1fbbc3cb45
thezmans2021-06-29d01t07.flac:bed0b30c8d3b2f7cf21bff0d14ceb7af
thezmans2021-06-29d01t08.flac:51eb232f8bc9f2b76a9d580c7284a3cc
thezmans2021-06-29d01t09.flac:234ecf6cdb89d45aaabf2217b142f23a
thezmans2021-06-29d01t10.flac:5d8ce3e88a98b2a6abad331aa4033599
thezmans2021-06-29d02t01.flac:0dad72e1f8ced34c1ccf4b18007297df
thezmans2021-06-29d02t02.flac:426c6356d2f9ec433d395ccfd80fe116
thezmans2021-06-29d02t03.flac:e28f30a9d454a6baf9f407accf306b12
thezmans2021-06-29d02t04.flac:ca2875b984569f5d33f2d7034ce61e6a
thezmans2021-06-29d02t05.flac:b375557e5233457d294544ca1e3470fd
thezmans2021-06-29d02t06.flac:48f07e47df6836c657c5b44d6a7c48d1
thezmans2021-06-29d02t07.flac:d7ff56e0533efd1a7ca4b6ea65cfe428
thezmans2021-06-29d02t08.flac:8b7a292009bfd6ca9b2d34759cf90cef

 length     expanded size    cdr  WAVE problems  fmt   ratio  filename
     0:52.19        9217532 B   ---   --   ---xx   flac  0.3096  thezmans2021-06-29d01t01.flac
     9:05.10       96161564 B   ---   --   ---xx   flac  0.5207  thezmans2021-06-29d01t02.flac
     7:43.00       81673244 B   ---   --   ---xx   flac  0.5309  thezmans2021-06-29d01t03.flac
     5:58.39       63242972 B   ---   --   ---xx   flac  0.4774  thezmans2021-06-29d01t04.flac
     9:14.52       97847948 B   ---   --   ---xx   flac  0.5161  thezmans2021-06-29d01t05.flac
     4:46.55       50579804 B   ---   --   ---xx   flac  0.5171  thezmans2021-06-29d01t06.flac
     5:53.70       62433884 B   ---   --   ---xx   flac  0.4707  thezmans2021-06-29d01t07.flac
     7:14.69       76719932 B   ---   --   ---xx   flac  0.4866  thezmans2021-06-29d01t08.flac
     7:46.42       82301228 B   ---   --   ---xx   flac  0.5076  thezmans2021-06-29d01t09.flac
     9:23.24       99369692 B   ---   --   ---xx   flac  0.5478  thezmans2021-06-29d01t10.flac
     4:04.22       43093388 B   ---   --   ---xx   flac  0.5003  thezmans2021-06-29d02t01.flac
     7:41.03       81327500 B   ---   --   ---xx   flac  0.5236  thezmans2021-06-29d02t02.flac
     7:04.71       74960636 B   ---   --   ---xx   flac  0.5174  thezmans2021-06-29d02t03.flac
    11:15.65      119222924 B   ---   --   ---xx   flac  0.5031  thezmans2021-06-29d02t04.flac
    11:04.03      117136700 B   ---   --   ---xx   flac  0.4996  thezmans2021-06-29d02t05.flac
     7:28.22       79078988 B   ---   --   ---xx   flac  0.5323  thezmans2021-06-29d02t06.flac
     1:34.59       16720412 B   ---   --   ---xx   flac  0.3609  thezmans2021-06-29d02t07.flac
     1:04.26       11350796 B   ---   --   ---xx   flac  0.3574  thezmans2021-06-29d02t08.flac
   119:16.51     1262439144 B                            0.5067  (18 files)







More information about the bittorrent mailing list