[bittorrent] Jason Isbell 2014-02-09 152726 dr40.AUD Plush, St. Louis, MO crowhd024 gravel flac2448

Automated Mailer noreply-bt.e at etree.org
Thu Jul 1 01:00:51 UTC 2021


Band:           Jason Isbell
Torrent Name:   Jason Isbell 2014-02-09 152726 dr40.AUD Plush, St. Louis, MO crowhd024 gravel flac2448
Uploaded by:    grv68
DB Link:        
Details:        http://bt.etree.org/details.php?id=613064

Contact the seeder at http://db.etree.org/grv68

If the link to this show does not work, it was probably removed for
being non-trade-friendly.

Description / text file:
-------------------------
Jason Isbell and the 400 Unit
Plush
St. Louis, MO
Sunday, February 9, 2014

Source: Tascam DR-40 internals with a 40 hertz low cut at 24 bit / 48 kHz
Mastering: RX8 > Ozone 9 > Reaper > FLAC 24/48 level 8

Recorded by crowhd024 (AKA Shoam1)
Mastered by Steve Gravel

Band lineup:
Jason Isbell, guitar, lead vocals
Amanda Shires, fiddle, backup vocals
Sadler Vaden, guitar, backup vocals
Jimbo Hart, bass, backup vocals
Derry DeBorja, keyboard, accordion, backup vocals
Chad Gamble, drums, backup vocals

Notes:
- First known source for this date.
- Changes in tone and balance during the beginning of Go It Alone were smoothed a little.
- Robert Ellis opened the show.

Set:
01 Tour of Duty
02 Go It Alone
03 Decoration Day
04 Streetlights
05 Flying Over Water
06 Cover Me Up
07 Relatively Easy
08 Live Oak
09 Alabama Pines
10 Different Days
11 Traveling Alone
12 Yvette
13 Codeine
14 Stockholm
15 Elephant
16 Goddamn Lonely Love
17 Never Gonna Change

Encore:
18 encore break
19 Mutineer
20 Outfit
21 Super 8

    length     expanded size    cdr  WAVE problems  fmt   ratio  filename
     4:27.840      77137964 B   cxx   --   ---xx   flac  0.7083  01 - Tour of Duty.flac
     4:54.120      84706604 B   cxx   --   ---xx   flac  0.7519  02 - Go It Alone.flac
     7:31.098     129916298 B   cxx   --   ---xx   flac  0.7177  03 - Decoration Day.flac
     5:23.542      93180104 B   cxx   --   ---xx   flac  0.6905  04 - Streetlights.flac
     4:52.608      84271100 B   cxx   --   ---xx   flac  0.7133  05 - Flying Over Water.flac
     6:20.259     109514582 B   cxx   --   ---xx   flac  0.6661  06 - Cover Me Up.flac
     5:29.533      94905644 B   cxx   --   ---xx   flac  0.7152  07 - Relatively Easy.flac
     4:03.667      70176044 B   cxx   --   ---xx   flac  0.6527  08 - Live Oak.flac
     4:25.533      76473644 B   cxx   --   ---xx   flac  0.7089  09 - Alabama Pines.flac
     4:46.800      82598444 B   cxx   --   ---xx   flac  0.6810  10 - Different Days.flac
     5:15.000      90720044 B   cxx   --   ---xx   flac  0.7101  11 - Traveling Alone.flac
     6:32.000     112896044 B   cxx   --   ---xx   flac  0.6670  12 - Yvette.flac
     6:35.000     113760044 B   cxx   --   ---xx   flac  0.7201  13 - Codeine.flac
     3:07.600      54028844 B   cxx   --   ---xx   flac  0.7651  14 - Stockholm.flac
     4:56.800      85478444 B   cxx   --   ---xx   flac  0.6459  15 - Elephant.flac
     7:24.533     128025644 B   cxx   --   ---xx   flac  0.6887  16 - Goddamn Lonely Love.flac
     7:04.591     122282252 B   cxx   --   ---xx   flac  0.7723  17 - Never Gonna Change.flac
     2:26.876      42300236 B   cxx   --   ---xx   flac  0.6738  18 - encore break.flac
     3:17.600      56908844 B   cxx   --   ---xx   flac  0.6294  19 - Mutineer.flac
     5:50.200     100857644 B   cxx   --   ---xx   flac  0.7139  20 - Outfit.flac
     4:40.800      80870444 B   cxx   --   ---xx   flac  0.7656  21 - Super 8.flac
   109:26.000    1891008912 B                            0.7045  (21 files)



More information about the bittorrent mailing list