[bittorrent] Frankly Scarlet Mad Life Stage And Studios Woodstock, Georgia 8/26/2021 (Z-Man Schoeps CCM4V'S FOB)

Automated Mailer noreply-bt.e at etree.org
Tue Aug 31 13:27:14 UTC 2021


Band:           Other
Torrent Name:   Frankly Scarlet Mad Life Stage And Studios Woodstock, Georgia 8/26/2021 (Z-Man Schoeps CCM4V'S FOB)
Uploaded by:    zmanatl
DB Link:        
Details:        http://bt.etree.org/details.php?id=613646

Contact the seeder at http://db.etree.org/zmanatl

If the link to this show does not work, it was probably removed for
being non-trade-friendly.

Description / text file:
-------------------------
Frankly Scarlet
Mad Life Stage And Studios
Woodstock, Georgia
8/26/2021 

Source: Schoeps CCM4V'S>Lunatec V2>Sound Devices 722 (24/44.1)
FOB/DFC/KFC/ZFC/AARP Clamped To The Balcony, 6 1/2' High
DSP: Sound Devices 722>Sound Forge 10.0>CD Wave>flac(16)
ID3 Tagged In Foobar 2000
Recorded By: Z-Man
Seeded By: Z-Man
A Team Dirty South Recording

Disc I 1st Set

01 Greeting
02 *Viola Lee Blues 
03 Bertha
04 Ramble On Rose
05 Jack Straw

Disc II 1st Set Con't

01 Big Railroad Blues
02 Brown-Eyed Women
03 The Music Never Stopped/ 
04 Not Fade Away

Disc III 2nd Set 

01 Bante
02 Feel Like A Stranger
03 Scarlet Begonias >
04 Fire On The Mountain >
05 Scarlet Begonias Reprise
06 Terrapin Station > 
07 *Golden Road (To Unlimited Devotion)

* With Sasha On Harmonica

Cassidy Wall - Guitar And Vocals
Chris "Critter" Rickers - Guitar And Vocals
Jeremy "Jerbo" Foti - Bass 
Damian Kapcala - Keyboards And Vocals
Kane Stanley Of Cosmic Charlie - Drums

frankly2021-08-26d01t01.flac:c19bc11070905eef1dc9618b06020d00
frankly2021-08-26d01t02.flac:a01a8c9c24f2b8055126d727d4832aa4
frankly2021-08-26d01t03.flac:198b783f37309f225b232cc785d83a74
frankly2021-08-26d01t04.flac:851916410f701c7498d3b918d8a6190b
frankly2021-08-26d01t05.flac:9ead816e8b3e56ed6ea7425f6baade9f
frankly2021-08-26d02t01.flac:fe4feecf7101176d0512d2fb8cdceedf
frankly2021-08-26d02t02.flac:6470da7ca0122d29e3718467aeb3eac1
frankly2021-08-26d02t03.flac:aa0f0fa87ca50f1e4193300201243544
frankly2021-08-26d02t04.flac:2cf5c2b6d85191686ae3a8607696d427
frankly2021-08-26d03t01.flac:a219404300b8dac2c38b1b004d156641
frankly2021-08-26d03t02.flac:88e4da9f355302617746703c312cab8c
frankly2021-08-26d03t03.flac:32f195273c21c8205daa2da8846ff2e8
frankly2021-08-26d03t04.flac:9948444361616531a54527eb7c9dc4c5
frankly2021-08-26d03t05.flac:e4b748e9697d4fd99e361e6feb9282d2
frankly2021-08-26d03t06.flac:a99d0083144c397a9c9b95574daf0a8f
frankly2021-08-26d03t07.flac:9ed384e555b6d9f3627b90f4e0167748

length     expanded size    cdr  WAVE problems  fmt   ratio  filename
     0:43.35        7667564 B   ---   --   ---xx   flac  0.5492  frankly2021-08-26d01t01.flac
    16:16.24      172222892 B   ---   --   ---xx   flac  0.5543  frankly2021-08-26d01t02.flac
     7:20.62       77761868 B   ---   --   ---xx   flac  0.5526  frankly2021-08-26d01t03.flac
     7:34.57       80219708 B   ---   --   ---xx   flac  0.4949  frankly2021-08-26d01t04.flac
    13:10.42      139454828 B   ---   --   ---xx   flac  0.5127  frankly2021-08-26d01t05.flac
     6:31.56       69104156 B   ---   --   ---xx   flac  0.5208  frankly2021-08-26d02t01.flac
     6:45.70       71606684 B   ---   --   ---xx   flac  0.5420  frankly2021-08-26d02t02.flac
    15:17.61      161902316 B   ---   --   ---xx   flac  0.5483  frankly2021-08-26d02t03.flac
    14:55.55      158007404 B   ---   --   ---xx   flac  0.5222  frankly2021-08-26d02t04.flac
     0:45.56        8069756 B   ---   --   ---xx   flac  0.3209  frankly2021-08-26d03t01.flac
    10:47.31      114203756 B   ---   --   ---xx   flac  0.5334  frankly2021-08-26d03t02.flac
    10:57.70      116059484 B   ---   --   ---xx   flac  0.5268  frankly2021-08-26d03t03.flac
    10:12.40      108050924 B   ---   --   ---xx   flac  0.5243  frankly2021-08-26d03t04.flac
     1:09.61       12315116 B   ---   --   ---xx   flac  0.4047  frankly2021-08-26d03t05.flac
    12:51.52      136126748 B   ---   --   ---xx   flac  0.4938  frankly2021-08-26d03t06.flac
    10:16.22      108714188 B   ---   --   ---xx   flac  0.5761  frankly2021-08-26d03t07.flac
   145:38.44     1541487392 B                            0.5294  (16 files)








More information about the bittorrent mailing list