[bittorrent] Lee "Scratch" Perry 2008-08-25 Madison WI - REST IN POWER!

Automated Mailer noreply-bt.e at etree.org
Sun Aug 29 16:16:41 UTC 2021


Band:           Other
Torrent Name:   Lee "Scratch" Perry 2008-08-25 Madison WI - REST IN POWER!
Uploaded by:    morst
DB Link:        
Details:        http://bt.etree.org/details.php?id=613628

Contact the seeder at http://db.etree.org/morst

If the link to this show does not work, it was probably removed for
being non-trade-friendly.

Description / text file:
-------------------------
Lee "Scratch" Perry
Monday August 25, 2008
Madison, WI, USA
Majestic Theatre

Natty Nation and Tropical Riddims Sound System opened for Lee "Scratch" Perry
Natty Nation then served as the backing band for Scratch's performance


Disc 1 (40:26)
01. crowd
02. Kaya
03. Introducing Myself
04. Secret Laboratory
05. Jungle Safari
06. Jah Live
 
Disc 2 (61:50)
07. Sun Is Shining
08. God Save His King (new song)
09. Pum Pum (new song)
10. I Am A Madman
11. De Devil Dead
12. encore break
13. To Be A Lover (Have Some Mercy)
14. Roast Fish & Cornbread
15. FRP Spin (Tropical Riddims Sound System)
16. Signout



Drums: Jah Boogie
Keys: Aaron Konkol
Bass: Nick Moran
Gtr: Biff Uranus Blumfumgagnge

Majestic house sound: Phil (FoH)
Natty Nation FoH sound: Jim
Majestic house lighting: Matt

Source: Neumann KM140 pair > FLAC

Venue:
http://www.majesticmadison.com
http://www.myspace.com/majesticmadison
Bands:
http://www.lee-perry.com/
http://www.myspace.com/leescratchperry
http://www.nattynation.com/
http://www.myspace.com/nattynation



Metadata tagged version with renamed tracks 2021-05 was LSP2008-08-25



SHNTOOL INFO:
Channels:                     2
Bits/sample:                  16
Samples/sec:                  44100



SHNTOOL LEN:
    length     expanded size    cdr  WAVE problems  fmt   ratio  filename
     0:40.68        7215980 B   ---   --   ---xx   flac  0.4532  LeeScratchPerry2008-08-25t01.flac
     6:13.66       65952476 B   ---   --   ---xx   flac  0.5002  LeeScratchPerry2008-08-25t02.flac
     8:00.29       84740252 B   ---   --   ---xx   flac  0.5144  LeeScratchPerry2008-08-25t03.flac
     8:54.23       94251740 B   ---   --   ---xx   flac  0.5234  LeeScratchPerry2008-08-25t04.flac
     8:17.21       87720236 B   ---   --   ---xx   flac  0.5155  LeeScratchPerry2008-08-25t05.flac
     8:19.06       88037756 B   ---   --   ---xx   flac  0.5264  LeeScratchPerry2008-08-25t06.flac
     8:25.38       89171420 B   ---   --   ---xx   flac  0.5103  LeeScratchPerry2008-08-25t07.flac
     6:45.34       71522012 B   ---   --   ---xx   flac  0.5543  LeeScratchPerry2008-08-25t08.flac
     8:41.21       91953836 B   ---   --   ---xx   flac  0.5281  LeeScratchPerry2008-08-25t09.flac
     5:57.04       62984252 B   ---   --   ---xx   flac  0.5489  LeeScratchPerry2008-08-25t10.flac
     5:48.63       61535420 B   ---   --   ---xx   flac  0.5170  LeeScratchPerry2008-08-25t11.flac
     0:28.21        4988636 B   ---   --   ---xx   flac  0.5983  LeeScratchPerry2008-08-25t12.flac
    10:04.29      106613852 B   ---   --   ---xx   flac  0.5173  LeeScratchPerry2008-08-25t13.flac
     8:53.39       94112972 B   ---   --   ---xx   flac  0.5165  LeeScratchPerry2008-08-25t14.flac
     5:30.48       58324940 B   ---   --   ---xx   flac  0.3987  LeeScratchPerry2008-08-25t15.flac
     1:14.45       13159484 B   ---   --   ---xx   flac  0.4279  LeeScratchPerry2008-08-25t16.flac
   102:15.30     1082285264 B                            0.5142  (16 files)



More information about the bittorrent mailing list