[bittorrent] Tyler Neal Band The Northside Tavern Atlanta, Georgia 8/18/2021 (Z-Man Schoeps CCM4V'S FOB)

Automated Mailer noreply-bt.e at etree.org
Sun Aug 29 04:37:41 UTC 2021


Band:           Other
Torrent Name:   Tyler Neal Band The Northside Tavern Atlanta, Georgia 8/18/2021 (Z-Man Schoeps CCM4V'S FOB)
Uploaded by:    zmanatl
DB Link:        
Details:        http://bt.etree.org/details.php?id=613624

Contact the seeder at http://db.etree.org/zmanatl

If the link to this show does not work, it was probably removed for
being non-trade-friendly.

Description / text file:
-------------------------
Tyler Neal Band
The Northside Tavern
Atlanta, Georgia
8/18/2021 

Source: Schoeps CCM4V'S>Lunatec V2>Sound Devices 722 (24/44.1)
FOB/DFC/KFC/ZFC/AARP 10' From Stage, 6 1/2' High
DSP: Sound Devices 722>Sound Forge 10.0>CD Wave>flac(16)
ID3 Tagged In Foobar 2000
Recorded By: Z-Man
Seeded By: Z-Man
A Team Dirty South Recording

Disc I 1st Set

01 Hot 'Lanta 
02 Ride Me High
03 Down Along The Cove
04 Born Under A Bad Sign
05 Kissin' My Love
06 Hey Pockey Way
07 Band OIntroductions 

Disc II 2nd Set

01 Fire On The Bayou
02 Done Somebody Wrong >
03 Yes We Can Can >
04 Can't Find My Way Home
05 Shake Your Money Maker 
06 Statesboro Blues >
07 Tip The Band/Outro

Tyler Neal - Guitar And Vocals
Chad Mason - Keyboards And Vocals
Alex W. - Bass And Vocals
Kee Turnage- Drums
Tony Erice - Percussion

tyler2021-08-18d01t01.flac:53df3498a2770057ef59859f1fbcb3fe
tyler2021-08-18d01t02.flac:cfb5dddf5772d722c686cb0131282507
tyler2021-08-18d01t03.flac:2686bb92deddb675455fb72009834822
tyler2021-08-18d01t04.flac:83bcfcd85d7793ad7dbd018020cd06a9
tyler2021-08-18d01t05.flac:972ccfdb9844db73554df15faff01bc2
tyler2021-08-18d01t06.flac:682fbceff093cd3127103eb18f6e51f7
tyler2021-08-18d01t07.flac:95e96261bf7721602584dbd6f4ca486c
tyler2021-08-18d02t01.flac:7f4242dcf3a8400807ecb6af86e288fc
tyler2021-08-18d02t02.flac:da2915b2bd6e13029037e4f012f8e2eb
tyler2021-08-18d02t03.flac:798e4907ed7e3d00c37aa755def5fa54
tyler2021-08-18d02t04.flac:b138f4f90ae7aba15d278c5ea28b5683
tyler2021-08-18d02t05.flac:dffc9c9c60a8ef544b04cbf118ed27d4
tyler2021-08-18d02t06.flac:b4c90425f0895ea5d5575c7ecdf2040e
tyler2021-08-18d02t07.flac:ddcc54fe5ed0959e8855d5bfb5efa994

  length     expanded size    cdr  WAVE problems  fmt   ratio  filename
     7:16.03       76917500 B   ---   --   ---xx   flac  0.5748  tyler2021-08-18d01t01.flac
    11:46.26      124599596 B   ---   --   ---xx   flac  0.5523  tyler2021-08-18d01t02.flac
     5:18.52       56217548 B   ---   --   ---xx   flac  0.5741  tyler2021-08-18d01t03.flac
     5:50.37       61827068 B   ---   --   ---xx   flac  0.5069  tyler2021-08-18d01t04.flac
     5:49.53       61688300 B   ---   --   ---xx   flac  0.5213  tyler2021-08-18d01t05.flac
     8:07.47       86017388 B   ---   --   ---xx   flac  0.5255  tyler2021-08-18d01t06.flac
     1:11.37       12611468 B   ---   --   ---xx   flac  0.4098  tyler2021-08-18d01t07.flac
     7:27.48       78963740 B   ---   --   ---xx   flac  0.5895  tyler2021-08-18d02t01.flac
     6:49.12       72175868 B   ---   --   ---xx   flac  0.5819  tyler2021-08-18d02t02.flac
     6:58.01       73737596 B   ---   --   ---xx   flac  0.6135  tyler2021-08-18d02t03.flac
     5:32.24       58621292 B   ---   --   ---xx   flac  0.5221  tyler2021-08-18d02t04.flac
     9:31.51      100844396 B   ---   --   ---xx   flac  0.5673  tyler2021-08-18d02t05.flac
     5:46.20       61081484 B   ---   --   ---xx   flac  0.6024  tyler2021-08-18d02t06.flac
     1:32.25       16287644 B   ---   --   ---xx   flac  0.4930  tyler2021-08-18d02t07.flac
    88:57.61      941590888 B                            0.5582  (14 files)






More information about the bittorrent mailing list