[bittorrent] Magnolia Express Steady Hand Beer Co. Atlanta, Georgia 8/22/2021 (Z-Man Schoeps CCM4V'S FOB)

Automated Mailer noreply-bt.e at etree.org
Sun Aug 29 03:09:43 UTC 2021


Band:           Other
Torrent Name:   Magnolia Express Steady Hand Beer Co. Atlanta, Georgia 8/22/2021 (Z-Man Schoeps CCM4V'S FOB) 
Uploaded by:    zmanatl
DB Link:        
Details:        http://bt.etree.org/details.php?id=613619

Contact the seeder at http://db.etree.org/zmanatl

If the link to this show does not work, it was probably removed for
being non-trade-friendly.

Description / text file:
-------------------------
Magnolia Express
Steady Hand Beer Co.
Atlanta, Georgia
8/22/2021 

Source: Schoeps CCM4V'S>Lunatec V2>Sound Devices 722 (24/44.1)
FOB/DFC/KFC/ZFC/AARP 5' From Stage, 5' High
DSP: Sound Devices 722>Sound Forge 10.0>CD Wave>flac(16)
ID3 Tagged In Foobar 2000
Recorded By: Z-Man
Seeded By: Z-Man
A Team Dirty South Recording

Disc I 1st Set

01 Handsome Molly 
02 Shady Grove
03 Foggy Mountain Breakdown
04 Dancin' In The Moonlight
05 The Weight
06 Cold, Wet, And Grey
07 Old Train 
08 Me And My Uncle
09 Cardboard Box
10 Paradise
11 Old And In The Way
12 Salty Dog
13 Gentle On My Mind
14 The Monkey And The Engineer
15 Movin' On >
16 Friend Of The Devil

Disc II 2nd Set

01 Dust In A Baggie 
02 Destiny
03 Panama Red 
04 Wild Horses 
05 Mama Raised Mer Right, But I Went Left >
06 Big River
07 White Dove
08 Just My Lady And Me
09 Cumberland Blues
10 Angel From Montgomery
11 Shotgun Shack
12 House Of The Risin' Sun
13 I'll Fly Away

Russell "RB" Brown - Guitar And Vocals
Scott Balum - Bass And Vocals
Joe Kimsey - Banjo
Carrie Holley - Vocals
Jose Rivera - Percussion

magnolia2021-08-22d01t01.flac:1dcc98b25b4d67d67400102a15c174cf
magnolia2021-08-22d01t02.flac:71dfedc9157b24b49c4d3fb7dbd8f41e
magnolia2021-08-22d01t03.flac:6f77ba474c6bb7a26e5351cc05c4672b
magnolia2021-08-22d01t04.flac:55bc5e31494a01aca8300957070a2f3b
magnolia2021-08-22d01t05.flac:04910054e08b779126d1d86c914c7963
magnolia2021-08-22d01t06.flac:abc435a3fa16602b4a53ba6f631fafc9
magnolia2021-08-22d01t07.flac:1b6c4c51d4e054dc417d3b201f4646a1
magnolia2021-08-22d01t08.flac:5200e21100f90ba00d46cd4d0e187d3c
magnolia2021-08-22d01t09.flac:fc1aa5a1db0f1eb41dd3f4aad18a7486
magnolia2021-08-22d01t10.flac:05f310f46143e329a0fadd088675fe0a
magnolia2021-08-22d01t11.flac:b0db6035c54aa514e256b2a310187fde
magnolia2021-08-22d01t12.flac:519d81bf8c4def1e88433dbde5a192f6
magnolia2021-08-22d01t13.flac:29c00602df0e42e74e20a36cd583dd9a
magnolia2021-08-22d01t14.flac:fcce7fed6730105dbd90668457a4d286
magnolia2021-08-22d01t15.flac:64529709692453b051db776e71f2eec1
magnolia2021-08-22d01t16.flac:a0abfc61be9202c27542c89d45a1bb70
magnolia2021-08-22d02t01.flac:9b2d23b26680693f02d891cf7d5f900f
magnolia2021-08-22d02t02.flac:10e6ea0552b9c74f7341e92ff739d67b
magnolia2021-08-22d02t03.flac:dc2a174401a417db5a1311fc46d6d84c
magnolia2021-08-22d02t04.flac:3de713c50d9268c727acb8dc1d820cff
magnolia2021-08-22d02t05.flac:c6127890a36754743fdcf9b9e2750dc2
magnolia2021-08-22d02t06.flac:6c8fb674459948b06c4ac716474faab5
magnolia2021-08-22d02t07.flac:ec9ffc8734a21f225a9a5a4c5486b3e4
magnolia2021-08-22d02t08.flac:5d2c70c15ef72a5b02e00b21b4165ecd
magnolia2021-08-22d02t09.flac:084bd47b079ec96ba3be18725145b0e9
magnolia2021-08-22d02t10.flac:c0c672ffa316245e878dc64a22ad727a
magnolia2021-08-22d02t11.flac:557db05cbe356e2354edf14046f032fe
magnolia2021-08-22d02t12.flac:92e16af5f2bc6c659ef8d2cd4ade57cb
magnolia2021-08-22d02t13.flac:07a3076a8da3113f6933ae49066f4060

 length     expanded size    cdr  WAVE problems  fmt   ratio  filename
     4:11.30       44347004 B   ---   --   ---xx   flac  0.4159  magnolia2021-08-22d01t01.flac
     5:18.07       56111708 B   ---   --   ---xx   flac  0.5098  magnolia2021-08-22d01t02.flac
     2:26.16       25792076 B   ---   --   ---xx   flac  0.4316  magnolia2021-08-22d01t03.flac
     3:45.72       39859388 B   ---   --   ---xx   flac  0.4254  magnolia2021-08-22d01t04.flac
     4:35.70       48674684 B   ---   --   ---xx   flac  0.4815  magnolia2021-08-22d01t05.flac
     6:00.35       63586364 B   ---   --   ---xx   flac  0.5010  magnolia2021-08-22d01t06.flac
     4:11.63       44424620 B   ---   --   ---xx   flac  0.4301  magnolia2021-08-22d01t07.flac
     3:14.43       34322780 B   ---   --   ---xx   flac  0.5084  magnolia2021-08-22d01t08.flac
     7:00.37       74175068 B   ---   --   ---xx   flac  0.5108  magnolia2021-08-22d01t09.flac
     4:59.67       52901228 B   ---   --   ---xx   flac  0.4041  magnolia2021-08-22d01t10.flac
     4:29.47       47562188 B   ---   --   ---xx   flac  0.4745  magnolia2021-08-22d01t11.flac
     3:43.39       39428972 B   ---   --   ---xx   flac  0.4696  magnolia2021-08-22d01t12.flac
     5:35.55       59223404 B   ---   --   ---xx   flac  0.4908  magnolia2021-08-22d01t13.flac
     2:39.66       28202876 B   ---   --   ---xx   flac  0.4538  magnolia2021-08-22d01t14.flac
     4:34.34       48413612 B   ---   --   ---xx   flac  0.4362  magnolia2021-08-22d01t15.flac
     4:44.45       50203484 B   ---   --   ---xx   flac  0.4415  magnolia2021-08-22d01t16.flac
     3:03.11       32307116 B   ---   --   ---xx   flac  0.4804  magnolia2021-08-22d02t01.flac
     4:43.40       50015324 B   ---   --   ---xx   flac  0.4594  magnolia2021-08-22d02t02.flac
     3:43.32       39412508 B   ---   --   ---xx   flac  0.5050  magnolia2021-08-22d02t03.flac
     4:44.25       50156444 B   ---   --   ---xx   flac  0.4157  magnolia2021-08-22d02t04.flac
     2:55.04       30879452 B   ---   --   ---xx   flac  0.5272  magnolia2021-08-22d02t05.flac
     3:32.18       37439180 B   ---   --   ---xx   flac  0.4979  magnolia2021-08-22d02t06.flac
     5:30.21       58261436 B   ---   --   ---xx   flac  0.3774  magnolia2021-08-22d02t07.flac
     4:43.58       50057660 B   ---   --   ---xx   flac  0.4258  magnolia2021-08-22d02t08.flac
     6:18.49       66794492 B   ---   --   ---xx   flac  0.5222  magnolia2021-08-22d02t09.flac
     5:18.61       56238716 B   ---   --   ---xx   flac  0.4010  magnolia2021-08-22d02t10.flac
     6:30.64       68946572 B   ---   --   ---xx   flac  0.4136  magnolia2021-08-22d02t11.flac
     4:36.27       48749948 B   ---   --   ---xx   flac  0.4779  magnolia2021-08-22d02t12.flac
     4:30.66       47783276 B   ---   --   ---xx   flac  0.5155  magnolia2021-08-22d02t13.flac
   131:44.02     1394271580 B                            0.4618  (29 files)




More information about the bittorrent mailing list