[bittorrent] Sweet Melissa And The Ramblin' Men The Moonshadow Tavern Tucker, Georgia 8/23/2021 (Z-Man Schoeps CCM4V'S FOB)

Automated Mailer noreply-bt.e at etree.org
Sat Aug 28 22:23:45 UTC 2021


Band:           Other
Torrent Name:   Sweet Melissa And The Ramblin' Men The Moonshadow Tavern Tucker, Georgia 8/23/2021 (Z-Man Schoeps CCM4V'S FOB)
Uploaded by:    zmanatl
DB Link:        
Details:        http://bt.etree.org/details.php?id=613612

Contact the seeder at http://db.etree.org/zmanatl

If the link to this show does not work, it was probably removed for
being non-trade-friendly.

Description / text file:
-------------------------
Sweet Melissa And The Ramblin' Men
The Moonshadow Tavern
Tucker, Georgia
8/23/2021 

Source: Schoeps CCM4V'S>Lunatec V2>Sound Devices 722 (24/44.1)
FOB/DFC/KFC/ZFC/AARP 10' From Stage, 6 1/2' High
DSP: Sound Devices 722>Sound Forge 10.0>CD Wave>flac(16)
ID3 Tagged In Foobar 2000
Recorded By: Z-Man
Seeded By: Z-Man
A Team Dirty South Recording

Disc I 1st Set

01 Greeting By Melissa
02 Statesboro Blues
03 Midnight Rider 
04 Ramblin Man 
05 Hot 'Lanta >
06 Drum Solo >
07 Hot 'Lanta
08 Stormy Monday
09 Blue Sky

Disc II 2nd Set

01 Banter
02 Don't Want You No More >
03 Ain;t My Cross To Bear
04 One Way Out
05 Midnight In Harlem
06 *Dreams 
07 Jessica
08 #Ain't Wastin' Time No More

Disc III 3rd Set

01 Melissa
02 Trouble No More
03 Southbound
04 Soulshine
05 You Don't Love Me
06 Whippin' Post

* With Norwegian Wood Tease
# With Tequila Tease

Melissa Goehner - Vocals And Percussion
Barry Richman - Guitar 
Jeremy Steagall - Guitar And Vocals
Joel Edwards - Keyboards And Vocals
Jeremy "Jerbo" Foti - Bass 
Nico - Drums

sweet2021-08-23d01t01.flac:38134540ddc1b3d00e71be673a8a9f60
sweet2021-08-23d01t02.flac:ee026b7ac2ce50e98217cb0293d61416
sweet2021-08-23d01t03.flac:3b31bee4c96d85a2616611af6de2d0ef
sweet2021-08-23d01t04.flac:f7778cc47423244130b6d3f03b52db9c
sweet2021-08-23d01t05.flac:31deb6b661609a425ae0be060cda9ad1
sweet2021-08-23d01t06.flac:d014fea6025fa30b48721a45f0566141
sweet2021-08-23d01t07.flac:dcbac3b6dfb3bb4937f55f24cbecedd5
sweet2021-08-23d01t08.flac:74406d271deb90171bc335c8a270cf64
sweet2021-08-23d01t09.flac:ab788b0a82b7feb2629a5d4fe69b171e
sweet2021-08-23d02t01.flac:5f2e07dc77bf9a392627670bd13abec7
sweet2021-08-23d02t02.flac:d1c9b1d4296d3187fdf5ce33882de1f2
sweet2021-08-23d02t03.flac:8c609b4d35da5bb4f4f671fdd6e9f1dd
sweet2021-08-23d02t04.flac:d5d4a3ad9c4761dd95c20a4e49aeaa05
sweet2021-08-23d02t05.flac:290867910b034204402cbd2d6e250ff1
sweet2021-08-23d02t06.flac:993127ef57f7c84fb36dfc5f2f349412
sweet2021-08-23d02t07.flac:b5eccaefd3508682500fc3714cdbf37a
sweet2021-08-23d02t08.flac:dc2bac7f113968287668aa6d4c96d6df
sweet2021-08-23d03t01.flac:6fbf77e695825941c0ad022eed764aef
sweet2021-08-23d03t02.flac:6ea039d0a3b9766a9531321ecc475396
sweet2021-08-23d03t03.flac:e0876967c969808fe581d151aa5068e5
sweet2021-08-23d03t04.flac:e1622c64ced0ef542bbd2afc08ca8d53
sweet2021-08-23d03t05.flac:7ad1dd3bc757e9aa05eaa6e756967758
sweet2021-08-23d03t06.flac:c689caedf2d70a17af2b70777b9fc814

 length     expanded size    cdr  WAVE problems  fmt   ratio  filename
     1:02.30       11007404 B   ---   --   ---xx   flac  0.2727  sweet2021-08-23d01t01.flac
     4:52.02       51513548 B   ---   --   ---xx   flac  0.5151  sweet2021-08-23d01t02.flac
     6:15.72       66319388 B   ---   --   ---xx   flac  0.5039  sweet2021-08-23d01t03.flac
     6:43.61       71232716 B   ---   --   ---xx   flac  0.5617  sweet2021-08-23d01t04.flac
     5:18.37       56182268 B   ---   --   ---xx   flac  0.5841  sweet2021-08-23d01t05.flac
     1:30.29       15944252 B   ---   --   ---xx   flac  0.5988  sweet2021-08-23d01t06.flac
     1:47.11       18900716 B   ---   --   ---xx   flac  0.5194  sweet2021-08-23d01t07.flac
     9:53.15      104640524 B   ---   --   ---xx   flac  0.4912  sweet2021-08-23d01t08.flac
     9:45.10      103217564 B   ---   --   ---xx   flac  0.5668  sweet2021-08-23d01t09.flac
     0:28.48        5052140 B   ---   --   ---xx   flac  0.2998  sweet2021-08-23d02t01.flac
     2:43.40       28847324 B   ---   --   ---xx   flac  0.5530  sweet2021-08-23d02t02.flac
     6:58.13       73765820 B   ---   --   ---xx   flac  0.4987  sweet2021-08-23d02t03.flac
     5:58.30       63221804 B   ---   --   ---xx   flac  0.5290  sweet2021-08-23d02t04.flac
     8:45.15       92645324 B   ---   --   ---xx   flac  0.4731  sweet2021-08-23d02t05.flac
    11:56.25      126361244 B   ---   --   ---xx   flac  0.5429  sweet2021-08-23d02t06.flac
     8:44.50       92551244 B   ---   --   ---xx   flac  0.6023  sweet2021-08-23d02t07.flac
     9:01.74       95606492 B   ---   --   ---xx   flac  0.5435  sweet2021-08-23d02t08.flac
     7:32.38       79822220 B   ---   --   ---xx   flac  0.5179  sweet2021-08-23d03t01.flac
     5:01.49       53211692 B   ---   --   ---xx   flac  0.5292  sweet2021-08-23d03t02.flac
     6:03.19       64077932 B   ---   --   ---xx   flac  0.5872  sweet2021-08-23d03t03.flac
     8:55.02       94378748 B   ---   --   ---xx   flac  0.5257  sweet2021-08-23d03t04.flac
     7:19.71       77606636 B   ---   --   ---xx   flac  0.5575  sweet2021-08-23d03t05.flac
    11:35.07      122614508 B   ---   --   ---xx   flac  0.5729  sweet2021-08-23d03t06.flac
   148:12.73     1568721508 B                            0.5375  (23 files)



More information about the bittorrent mailing list