[bittorrent] Andy Falco And Travis Book Duo Performing The Music Of Jerry Garcia The Hunt House Pavilion Marietta, Georgia 8/27/2021 (Z-Man Schoeps CCM4V'S FOB)

Automated Mailer noreply-bt.e at etree.org
Sat Aug 28 14:03:22 UTC 2021


Band:           Infamous Stringdusters
Torrent Name:   Andy Falco And Travis Book Duo Performing The Music Of Jerry Garcia The Hunt House Pavilion Marietta, Georgia 8/27/2021 (Z-Man Schoeps CCM4V'S FOB)
Uploaded by:    zmanatl
DB Link:        
Details:        http://bt.etree.org/details.php?id=613609

Contact the seeder at http://db.etree.org/zmanatl

If the link to this show does not work, it was probably removed for
being non-trade-friendly.

Description / text file:
-------------------------
Andy Falco And Travis Book Duo
Performing The Music Of Jerry Garcia
The Hunt House Pavillion
Marietta, Georgia
8/27/2021 

Source: Schoeps CCM4V'S>Lunatec V2>Sound Devices 722 (24/44.1)
FOB/DFC/KFC/ZFC/AARP 10' From Stage, 6 1/2' High
DSP: Sound Devices 722>Sound Forge 10.0>CD Wave>flac(16)
ID3 Tagged In Foobar 2000
Recorded By: Z-Man
Seeded By: Z-Man
A Team Dirty South Recording

Disc I 1st Set

01 Greeting By Travis
02 Shady Grove
03 Dire Wolf 
04 Angels 
05 Brown-Eyed Women 
06 Ramble On Rose 
07 It'll Be Alright
08 All The Same
09 Rosalie McFall
10 He's Gone
11 Jack Straw

Disc II 2nd Set

01 Buford Banter
02 Jack-A-Roe
03 Bird Song
04 New Speedway Boogie
05 Shakedown Street 
06 Stella Blue
07 The Thrill Is Gone
08 Touch Of Grey

Disc III 2nd Set Con't

01 Friend Of The Devil
02 Stones Unturned 
03 Wings Upon Your Feet
04 Midnight Moonlight 
05 Terrapin Station 
06 Banter
07 Ripple
Encore:
08 Banter
09 I Know You Rider

Andy Falco - Acoustic Guitar And Vocals
Travis Book - Stand-UP Bass And Vocals

andy2021-08-27d01t01.flac:68d6c118f7c3ef9c177fa4e95fdb2cbd
andy2021-08-27d01t02.flac:3c5a6b3f2550355b67b8cf3d2df4e823
andy2021-08-27d01t03.flac:c45184289d77c3e139b2047fdca56fcb
andy2021-08-27d01t04.flac:34c5e2eb7b12bcf16dca7f003521daa9
andy2021-08-27d01t05.flac:1f87be112690bd7fb8e2344809f3bd99
andy2021-08-27d01t06.flac:d9f0183513d0e004c1bf216b35d31a66
andy2021-08-27d01t07.flac:0df7e839c1e8b41c19a7c8efec2ee14d
andy2021-08-27d01t08.flac:6a8ac0201e3ca0c76ab3ca90f6500420
andy2021-08-27d01t09.flac:a32d2582c42701ad08435d3ba7f8a764
andy2021-08-27d01t10.flac:4831da87a87218a3a206763649d32fcb
andy2021-08-27d01t11.flac:bfb281abf45185ec34e693854615326d
andy2021-08-27d02t01.flac:e4bcc0dc1e97137149915710fa5778dd
andy2021-08-27d02t02.flac:835401896e7c8bb2a202e9f3067418dc
andy2021-08-27d02t03.flac:19f616bbfc4c91def07219c7d4a405bf
andy2021-08-27d02t04.flac:ea5f6543e4b73f9fc33b802cd711b0bc
andy2021-08-27d02t05.flac:c68a8a171670c4eb04a612d71cbb6c57
andy2021-08-27d02t06.flac:9d9943d4bd29cac7bc98755b304ca023
andy2021-08-27d02t07.flac:e362fbb98041846d50d590929c4b9d53
andy2021-08-27d02t08.flac:237a06319776dae8161abc0ad5fc8e3b
andy2021-08-27d03t01.flac:1c312dbd6ab5f25bbbf9712786fa884a
andy2021-08-27d03t02.flac:60e5d5f761e97e1231556dbf65251f84
andy2021-08-27d03t03.flac:49df73378a33ce6da390772e4755acb6
andy2021-08-27d03t04.flac:268e1bce00f5583e57a653e1d77263f6
andy2021-08-27d03t05.flac:d1f2f867b3672cc1a1893c83415dbdbd
andy2021-08-27d03t06.flac:9cdb0b7093e54899027823a4b1852dcc
andy2021-08-27d03t07.flac:affcaf33559b38a42ce0b36279397e4d
andy2021-08-27d03t08.flac:cd101f74223de211b404f4213e82884e
andy2021-08-27d03t09.flac:7756a41325c8bb5646ef38f817be6efa

length     expanded size    cdr  WAVE problems  fmt   ratio  filename
     0:57.04       10064252 B   ---   --   ---xx   flac  0.4153  andy2021-08-27d01t01.flac
     6:05.51       64505996 B   ---   --   ---xx   flac  0.4977  andy2021-08-27d01t02.flac
     3:47.27       40106348 B   ---   --   ---xx   flac  0.5151  andy2021-08-27d01t03.flac
     6:38.67       70364828 B   ---   --   ---xx   flac  0.4387  andy2021-08-27d01t04.flac
     4:25.65       46898924 B   ---   --   ---xx   flac  0.5045  andy2021-08-27d01t05.flac
     7:26.43       78775580 B   ---   --   ---xx   flac  0.4807  andy2021-08-27d01t06.flac
     3:18.51       35047196 B   ---   --   ---xx   flac  0.5085  andy2021-08-27d01t07.flac
     6:52.43       72777980 B   ---   --   ---xx   flac  0.4649  andy2021-08-27d01t08.flac
     4:03.15       42900524 B   ---   --   ---xx   flac  0.4830  andy2021-08-27d01t09.flac
     6:41.19       70781132 B   ---   --   ---xx   flac  0.4785  andy2021-08-27d01t10.flac
     8:29.06       89801756 B   ---   --   ---xx   flac  0.5128  andy2021-08-27d01t11.flac
     1:32.29       16297052 B   ---   --   ---xx   flac  0.4725  andy2021-08-27d02t01.flac
     4:15.21       45031436 B   ---   --   ---xx   flac  0.5234  andy2021-08-27d02t02.flac
     8:52.14       93877772 B   ---   --   ---xx   flac  0.4728  andy2021-08-27d02t03.flac
     7:39.16       81005276 B   ---   --   ---xx   flac  0.4830  andy2021-08-27d02t04.flac
     9:25.64       99816572 B   ---   --   ---xx   flac  0.4979  andy2021-08-27d02t05.flac
     6:26.47       68200988 B   ---   --   ---xx   flac  0.4639  andy2021-08-27d02t06.flac
     6:31.07       68988908 B   ---   --   ---xx   flac  0.4607  andy2021-08-27d02t07.flac
     5:35.71       59261036 B   ---   --   ---xx   flac  0.5314  andy2021-08-27d02t08.flac
     4:57.50       52508444 B   ---   --   ---xx   flac  0.4868  andy2021-08-27d03t01.flac
     6:10.20       65315084 B   ---   --   ---xx   flac  0.5070  andy2021-08-27d03t02.flac
     4:32.64       48131372 B   ---   --   ---xx   flac  0.4901  andy2021-08-27d03t03.flac
     4:15.09       45003212 B   ---   --   ---xx   flac  0.4714  andy2021-08-27d03t04.flac
    13:24.28      141891500 B   ---   --   ---xx   flac  0.4641  andy2021-08-27d03t05.flac
     2:33.52       27111548 B   ---   --   ---xx   flac  0.4211  andy2021-08-27d03t06.flac
     4:54.64       52012172 B   ---   --   ---xx   flac  0.4606  andy2021-08-27d03t07.flac
     0:33.15        5856524 B   ---   --   ---xx   flac  0.4404  andy2021-08-27d03t08.flac
     5:20.12       56476268 B   ---   --   ---xx   flac  0.4714  andy2021-08-27d03t09.flac
   155:46.74     1648809680 B                            0.4821  (28 files)





More information about the bittorrent mailing list