[bittorrent] Bobby Lee Rodgers Trio From The Earth Brewing Company Roswell, Georgia 8/14/2021 (Z-Man Schoeps CCM4V'S FOB)

Automated Mailer noreply-bt.e at etree.org
Fri Aug 27 19:26:51 UTC 2021


Band:           Other
Torrent Name:   Bobby Lee Rodgers Trio From The Earth Brewing Company Roswell, Georgia 8/14/2021 (Z-Man Schoeps CCM4V'S FOB) 
Uploaded by:    zmanatl
DB Link:        
Details:        http://bt.etree.org/details.php?id=613605

Contact the seeder at http://db.etree.org/zmanatl

If the link to this show does not work, it was probably removed for
being non-trade-friendly.

Description / text file:
-------------------------
Bobby Lee Rodgers Trio
>From The Earth Brewing Company
Roswell, Georgia
8/14/2021 

Source: Schoeps CCM4V'S>Lunatec V2>Sound Devices 722 (24/44.1)
FOB/DFC/KFC/ZFC/AARP 8' From Stage, 6 1/2' High
DSP: Sound Devices 722>Sound Forge 10.0>CD Wave>flac(16)
ID3 Tagged In Foobar 2000
Recorded By: Z-Man
Seeded By: Z-Man
A Team Dirty South Recording

Disc I 

01 Greeting
02 Ike Stubblefield >
03 Drum Solo >
04 Ike Stubblefield
05 Outer Space
06 So Good To See Ya
07 ?
08 Body In The Lake
09 *?
10 *What A Difference A Day Makes
11 *?

Disc II

01 Electronic President
02 When The World Comes Tumbling Down >
03 Drum Solo >
04 When The Woprld Comes Tumbling Down
05 The Altogether Man
06 ?
07 Land Of The Cover Band 
08 Beggin' You To Stay
Encore:
09 Bobby Lee Banter
10 Invisible Prison 
11 Stretchin' Out In The Smoke Ring

* With Graciela Lopez On Vocals
 
Bobby Lee Rodgers - Guitar And Vocals
Brian "Taze" Tate - Bass And Vocals
Brian "Phaze: Lange - Drums

bobby2021-08-14d01t01.flac:732f633d64b209efbe8bd94634d2aadc
bobby2021-08-14d01t02.flac:89b65e53dc38c5cf8b31664b5b747056
bobby2021-08-14d01t03.flac:aa1c09fcb42019d52fb9430c3c89e530
bobby2021-08-14d01t04.flac:f7f160b6bf520178610bf7a0ae906ec5
bobby2021-08-14d01t05.flac:292ed934229602fb67da8eec05c3d806
bobby2021-08-14d01t06.flac:28afe329d441a96004660e9b7d3ca5c1
bobby2021-08-14d01t07.flac:386bd6106e08eca17d4ca9726f5c4081
bobby2021-08-14d01t08.flac:19c217ccccb2b8e4a1fd98378942b008
bobby2021-08-14d01t09.flac:6f78b4296d3db158c9bf95d3389f5d12
bobby2021-08-14d01t10.flac:5926b86d0827809f060e5b6a89d5cc79
bobby2021-08-14d01t11.flac:1856768a973bde1c4aaf41641d691d59
bobby2021-08-14d02t01.flac:b1e854a4d7d16e148f3e8591c50b0236
bobby2021-08-14d02t02.flac:bc4a5329e19570869e19b7f34b0930b9
bobby2021-08-14d02t03.flac:be4f4b598df9c4bceb555f3eb7cc03fb
bobby2021-08-14d02t04.flac:e453b7fec3f7745c2a6c8eef30863d6d
bobby2021-08-14d02t05.flac:d38d21d68256be615b924dee4fc4cd94
bobby2021-08-14d02t06.flac:3d7a5d9f7b4f8e2fbabe9eb9788b0e3a
bobby2021-08-14d02t07.flac:6050c0c637e46f6293a6b33b67945aa3
bobby2021-08-14d02t08.flac:4ddb3f0feca18413946b0f722693c619
bobby2021-08-14d02t09.flac:4145e8e76b25c52d5607d84ed11a7787
bobby2021-08-14d02t10.flac:ea5f48ba89e2e63fe8d1d36ba6ca2ddd
bobby2021-08-14d02t11.flac:7dbdf0473902b7d50a9d8ca855c70f75

  length     expanded size    cdr  WAVE problems  fmt   ratio  filename
     0:21.11        3730316 B   ---   --   ---xx   flac  0.3493  bobby2021-08-14d01t01.flac
     5:47.43       61311980 B   ---   --   ---xx   flac  0.5143  bobby2021-08-14d01t02.flac
     1:19.35       14017964 B   ---   --   ---xx   flac  0.5055  bobby2021-08-14d01t03.flac
     2:39.29       28115852 B   ---   --   ---xx   flac  0.5576  bobby2021-08-14d01t04.flac
    12:50.21      135877436 B   ---   --   ---xx   flac  0.5355  bobby2021-08-14d01t05.flac
     9:30.37      100635068 B   ---   --   ---xx   flac  0.5237  bobby2021-08-14d01t06.flac
    12:53.74      136531292 B   ---   --   ---xx   flac  0.5208  bobby2021-08-14d01t07.flac
    10:20.61      109511516 B   ---   --   ---xx   flac  0.4990  bobby2021-08-14d01t08.flac
     4:16.41       45254876 B   ---   --   ---xx   flac  0.4631  bobby2021-08-14d01t09.flac
     2:30.00       26460044 B   ---   --   ---xx   flac  0.3052  bobby2021-08-14d01t10.flac
     4:38.70       49203884 B   ---   --   ---xx   flac  0.3974  bobby2021-08-14d01t11.flac
    11:37.04      122960252 B   ---   --   ---xx   flac  0.5341  bobby2021-08-14d02t01.flac
     4:59.13       52774220 B   ---   --   ---xx   flac  0.5307  bobby2021-08-14d02t02.flac
     2:24.68       25561580 B   ---   --   ---xx   flac  0.5117  bobby2021-08-14d02t03.flac
     2:59.26       31636796 B   ---   --   ---xx   flac  0.5542  bobby2021-08-14d02t04.flac
     8:52.09       93866012 B   ---   --   ---xx   flac  0.5485  bobby2021-08-14d02t05.flac
    11:34.61      122565116 B   ---   --   ---xx   flac  0.5101  bobby2021-08-14d02t06.flac
     7:50.47       83018588 B   ---   --   ---xx   flac  0.5699  bobby2021-08-14d02t07.flac
     8:28.49       89726492 B   ---   --   ---xx   flac  0.5349  bobby2021-08-14d02t08.flac
     0:22.49        3996092 B   ---   --   ---xx   flac  0.3410  bobby2021-08-14d02t09.flac
     8:10.54       86563052 B   ---   --   ---xx   flac  0.5526  bobby2021-08-14d02t10.flac
     9:48.36      103807916 B   ---   --   ---xx   flac  0.5127  bobby2021-08-14d02t11.flac
   144:17.13     1527126344 B                            0.5182  (22 files)







More information about the bittorrent mailing list