[bittorrent] The Z-Man's Jam Diane And John Rabson's House Roswell, Georgia 8/16/2021 (Z-Man Schoeps CCM4V'S FOB)

Automated Mailer noreply-bt.e at etree.org
Thu Aug 26 05:07:52 UTC 2021


Band:           Other
Torrent Name:   The Z-Man's Jam  Diane And John Rabson's House Roswell, Georgia 8/16/2021 (Z-Man Schoeps CCM4V'S FOB) 
Uploaded by:    zmanatl
DB Link:        
Details:        http://bt.etree.org/details.php?id=613599

Contact the seeder at http://db.etree.org/zmanatl

If the link to this show does not work, it was probably removed for
being non-trade-friendly.

Description / text file:
-------------------------
The Z-Man's Jam 
Diane And John Rabson's House
Roswell, Georgia
8/16/2021 

Source: Schoeps CCM4V'S>Lunatec V2>Sound Devices 722 (24/44.1)
FOB/DFC/KFC/ZFC/AARP 8' From Stage, 6 1/2' High
DSP: Sound Devices 722>Sound Forge 10.0>CD Wave>flac(16)
ID3 Tagged In Foobar 2000
Recorded By: Z-Man
Seeded By: Z-Man
A Team Dirty South Recording

Disc I 1st Set

01 Greeting By Z-Man
02 Hard To Handle
03 Angel From Montgomery >
04 *Sugaree
05 Dead Flowers 
06 He's Gone 
07 Piece Of My Heart
08 *Here Comes Sunshine
09 Time 
10 Shakedown Street

Disc II 2nd Set

01 Scarlet Begonias >
02 Fire On The Mountain >
03 Scarlet Begonias Reprise
04 Fixin' To Die
05 In Memory Of Elizabeth Reed >
06 Drum Solo >
07 In Memory Of Elizabeth Reed 
08 Midnight In Harle
09 *Eyes Of The World >m
10 *Goin' Down The Road Feelin' Bad >
11 We Bid You Goodnight  
12 Band Introductions/Outro

* With Z-Man On Vocals

Nick Johnson - Guitar And Vocals
Ryan Collins - Guitar And Vocals
Tyler Neal - Guitar And Vocals
Andy Tegethoff - Bass And Vocals
Melissa Goehner - Vocals
Ryan Marcus - Drums

thezman2021-08-16d01t01.flac:d707ac10f07485f21469313befbde4ec
thezman2021-08-16d01t02.flac:154e4f5591c170e076c05a15cd643a86
thezman2021-08-16d01t03.flac:c0f499e31be7d0523c7a6c5550296e33
thezman2021-08-16d01t04.flac:8b66433d46d9fc7d578c1a5c82abf3d2
thezman2021-08-16d01t05.flac:3c9ab2888804063102520291dc51dcb1
thezman2021-08-16d01t06.flac:40bc49e12cab26f284f0c430e50e1cea
thezman2021-08-16d01t07.flac:f0dc1b41ee34cc9952a27b531adc87f2
thezman2021-08-16d01t08.flac:63562bafc54ca34da7c2274d83f143e1
thezman2021-08-16d01t09.flac:3d7fe593fd462a5411cba271f02d8442
thezman2021-08-16d01t10.flac:ad6cefba0073a22fee3785acb07efab1
thezman2021-08-16d02t01.flac:53be2150c52c087dd0e4f7349e7d436b
thezman2021-08-16d02t02.flac:4259ae1b0258802b1ead1cbde4d34a8a
thezman2021-08-16d02t03.flac:8d2f11f89262f5f4e63e22f71f8b41db
thezman2021-08-16d02t04.flac:df793944796256a9271fe8d800dc9eec
thezman2021-08-16d02t05.flac:3788eafbaf411b83e9622caa91065212
thezman2021-08-16d02t06.flac:b93ce91b09e9f3c2ec13e17811cad8aa
thezman2021-08-16d02t07.flac:899cbba9d966ee9a68469dfba7bdd4a9
thezman2021-08-16d02t08.flac:f16bb6ffabd7c6e073978fcd047ee81c
thezman2021-08-16d02t09.flac:d621089c5ab2578c1c0e875d025a8865
thezman2021-08-16d02t10.flac:097a05900711d0bd30ceb454048e2eb1
thezman2021-08-16d02t11.flac:deba045657e7a3108a4e6f805522b7c3
thezman2021-08-16d02t12.flac:7b84d53a58809260550bb81f0837d023

  length     expanded size    cdr  WAVE problems  fmt   ratio  filename
     1:19.61       14079116 B   ---   --   ---xx   flac  0.3030  thezman2021-08-16d01t01.flac
     4:27.38       47188220 B   ---   --   ---xx   flac  0.4871  thezman2021-08-16d01t02.flac
     5:00.60       53061164 B   ---   --   ---xx   flac  0.4640  thezman2021-08-16d01t03.flac
    11:29.19      121584332 B   ---   --   ---xx   flac  0.5211  thezman2021-08-16d01t04.flac
     5:15.33       55643660 B   ---   --   ---xx   flac  0.5107  thezman2021-08-16d01t05.flac
     7:35.60       80403164 B   ---   --   ---xx   flac  0.4741  thezman2021-08-16d01t06.flac
     4:39.50       49333244 B   ---   --   ---xx   flac  0.5543  thezman2021-08-16d01t07.flac
     6:20.12       67060268 B   ---   --   ---xx   flac  0.5008  thezman2021-08-16d01t08.flac
     5:32.08       58583660 B   ---   --   ---xx   flac  0.4866  thezman2021-08-16d01t09.flac
    10:18.63      109163420 B   ---   --   ---xx   flac  0.5184  thezman2021-08-16d01t10.flac
     9:57.51      105430796 B   ---   --   ---xx   flac  0.5227  thezman2021-08-16d02t01.flac
     9:56.45      105240284 B   ---   --   ---xx   flac  0.5438  thezman2021-08-16d02t02.flac
     2:46.35       29364764 B   ---   --   ---xx   flac  0.2912  thezman2021-08-16d02t03.flac
     4:56.48       52327340 B   ---   --   ---xx   flac  0.4748  thezman2021-08-16d02t04.flac
    16:07.19      170623532 B   ---   --   ---xx   flac  0.5446  thezman2021-08-16d02t05.flac
     1:15.01       13232396 B   ---   --   ---xx   flac  0.5294  thezman2021-08-16d02t06.flac
     0:46.53        8239100 B   ---   --   ---xx   flac  0.5026  thezman2021-08-16d02t07.flac
     6:59.36       73996316 B   ---   --   ---xx   flac  0.4558  thezman2021-08-16d02t08.flac
    10:53.39      115280972 B   ---   --   ---xx   flac  0.5270  thezman2021-08-16d02t09.flac
     6:48.06       71985356 B   ---   --   ---xx   flac  0.5422  thezman2021-08-16d02t10.flac
     1:26.37       15257468 B   ---   --   ---xx   flac  0.2773  thezman2021-08-16d02t11.flac
     1:22.27       14528348 B   ---   --   ---xx   flac  0.3142  thezman2021-08-16d02t12.flac
   135:15.51     1431606920 B                            0.5029  (22 files)




More information about the bittorrent mailing list