[bittorrent] GD 8/23/68 [153116] - SBD - 8-Track Mix, Shrine Exposition Hall 1644 (GEMS)

Automated Mailer noreply-bt.e at etree.org
Wed Aug 25 21:50:47 UTC 2021


Band:           Grateful Dead
Torrent Name:   GD 8/23/68 [153116] - SBD - 8-Track Mix, Shrine Exposition Hall 1644 (GEMS)
Uploaded by:    grv68
DB Link:        
Details:        http://bt.etree.org/details.php?id=613595

Contact the seeder at http://db.etree.org/grv68

If the link to this show does not work, it was probably removed for
being non-trade-friendly.

Description / text file:
-------------------------
Grateful Dead
Shrine Exposition Hall
Los Angeles, CA
Friday, August 23, 1968

Recording Info: Vault Master 8-track Reel > Studio 2-track Mixdown (Dan Healy) > CAS > DAT 
Mastering Info: Samplitude Pro X5 > Flac16

Source provided by Anon
Mastering by Jim Blackwood
Speed Correction by Jason Chastain
Track, FLAC and Pack by Steve Gravel

Originally aired on 91.3 FM KXCI Tucson on Dead Air
Hosted by Jim Blackwood and Jamie Waddell on August 22, 2021
https://spinitron.com/KXCI/pl/13949252/Dead-Air
Shared to www.shnflac.net in August, 2021

FLAC Level 8 at 16bit 44.1kHz

Notes:
- Cut between The Eleven and Death Don't Have No Mercy – very little is missing

Set
01 Cryptical Envelopment >
02 The Other One >
03 Cryptical Envelopment
04 Dark Star >
05 Saint Stephen >
06 The Eleven
07 Death Don't Have No Mercy
08 Alligator >
09 Drums >
10 Jam >
11 Caution (Do Not Stop on Tracks) >
12 Feedback

**gems**

    length     expanded size    cdr  WAVE problems  fmt   ratio  filename
     1:50.68       19563980 B   ---   --   ---xx   flac  0.6410  01 Cryptical Envelopment.flac
     4:21.73       46212140 B   ---   --   ---xx   flac  0.6520  02 The Other One.flac
     6:39.60       70524764 B   ---   --   ---xx   flac  0.6056  03 Cryptical Envelopment.flac
    15:26.23      163400540 B   ---   --   ---xx   flac  0.5634  04 Dark Star.flac
     3:31.74       37394492 B   ---   --   ---xx   flac  0.6098  05 Saint Stephen.flac
    11:59.38      126921020 B   ---   --   ---xx   flac  0.6491  06 The Eleven.flac
     7:59.42       84594428 B   ---   --   ---xx   flac  0.5769  07 Death Don't Have No Mercy.flac
     3:33.58       37709660 B   ---   --   ---xx   flac  0.6406  08 Alligator.flac
     3:57.65       41959724 B   ---   --   ---xx   flac  0.6095  09 Drums.flac
    12:16.35      129912764 B   ---   --   ---xx   flac  0.6393  10 Jam.flac
    11:09.49      118126892 B   ---   --   ---xx   flac  0.6352  11 Caution (Do Not Stop on Tracks).flac
     3:07.11       33012716 B   ---   --   ---xx   flac  0.5537  12 Feedback.flac
    85:54.71      909333120 B                            0.6131  (12 files)



More information about the bittorrent mailing list