[bittorrent] Chip Jones Solo Acoustic The Suburbon Tap Marietta, Georgia 8/24/2021 (Z-Man Schoeps CCM4V'S FOB)

Automated Mailer noreply-bt.e at etree.org
Wed Aug 25 01:32:26 UTC 2021


Band:           Other
Torrent Name:   Chip Jones Solo Acoustic The Suburbon Tap Marietta, Georgia 8/24/2021 (Z-Man Schoeps CCM4V'S FOB) 
Uploaded by:    zmanatl
DB Link:        
Details:        http://bt.etree.org/details.php?id=613589

Contact the seeder at http://db.etree.org/zmanatl

If the link to this show does not work, it was probably removed for
being non-trade-friendly.

Description / text file:
-------------------------
Chip Jones Solo Acoustic
The Suburbon Tap
Marietta, Georgia
8/24/2021 

Source: Schoeps CCM4V'S>Lunatec V2>Sound Devices 722 (24/44.1)
FOB/DFC/KFC/ZFC/AARP 5' From Stage, 6' High
DSP: Sound Devices 722>Sound Forge 10.0>CD Wave>flac(16)
ID3 Tagged In Foobar 2000
Recorded By: Z-Man
Seeded By: Z-Man
A Team Dirty South Recording

Disc I

01 Black Orpheus
02 Something More Than Free
03 Gator Alley
04 White House Road
05 ?
06 I'm Hurting Inide
07 Last Of My Kind

chip2021-08-24d01t01.flac:dbf12a5bcf92bc5df205c866706e143f
chip2021-08-24d01t02.flac:a6c80469cdbe6c30aba0ded7ef3fc956
chip2021-08-24d01t03.flac:f63ef8baf3426f95a653131be406a554
chip2021-08-24d01t04.flac:86638b02d9c7637075537b24f1cea580
chip2021-08-24d01t05.flac:cf710a0b1c366cfd893e2dd1f5795945
chip2021-08-24d01t06.flac:153b4240984efe44016ed00df17624b2
chip2021-08-24d01t07.flac:2538f7900d6a7752cbd6c807eaa5ac9b

length     expanded size    cdr  WAVE problems  fmt   ratio  filename
     7:07.34       75402812 B   ---   --   ---xx   flac  0.4294  chip2021-08-24d01t01.flac
     3:54.50       41395244 B   ---   --   ---xx   flac  0.5023  chip2021-08-24d01t02.flac
     5:17.38       56008220 B   ---   --   ---xx   flac  0.4914  chip2021-08-24d01t03.flac
     6:19.36       66940316 B   ---   --   ---xx   flac  0.5037  chip2021-08-24d01t04.flac
     5:30.19       58256732 B   ---   --   ---xx   flac  0.4980  chip2021-08-24d01t05.flac
     5:04.62       53771468 B   ---   --   ---xx   flac  0.4830  chip2021-08-24d01t06.flac
     5:30.15       58247324 B   ---   --   ---xx   flac  0.4363  chip2021-08-24d01t07.flac
    38:44.29      410022116 B                            0.4751  (7 files)








More information about the bittorrent mailing list