[bittorrent] gd1982-09-23.153177.beyer.tompkins.flac2448

Automated Mailer noreply-bt.e at etree.org
Tue Aug 24 23:54:06 UTC 2021


Band:           Grateful Dead
Torrent Name:   gd1982-09-23.153177.beyer.tompkins.flac2448
Uploaded by:    nfagdtrfb
DB Link:        
Details:        http://bt.etree.org/details.php?id=613588

Contact the seeder at http://db.etree.org/nfagdtrfb

If the link to this show does not work, it was probably removed for
being non-trade-friendly.

Description / text file:
-------------------------
GRATEFUL DEAD
Coliseum
New Haven CT
09-23-1982

s1t01 Alabama Getaway >
s1t02 Greatest Story Ever Told
s1t03 Peggy-O
s1t04 Little Red Rooster
s1t05 Tennessee Jed
s1t06 Mama Tried >
s1t07 Mexicali Blues
s1t08 Althea
s1t09 Let it Grow

s2t01 Touch of Grey >
s2t02 Lost Sailor >
s2t03 Saint of Circumstance
s2t04 Ship of Fools
s2t05 Throwing Stones >
s2t06 Drums >
s2t07 Space >
s2t08 The Wheel >
s2t09 The Other One >
s2t10 Wharf Rat >
s2t11 Around & Around >
s2t12 Johnny B. Goode
s2t13 Encore: It's All Over Now Baby Blue

Source: FOB Beyers mics > Sony TC-D5M > Maxell MX-90 for 1st 
Set & Encore, and TDK MA-90 for 2nd Set. Concert recording 
by Rip Tompkins, and with thanks to Richie Stankiewicz!

Transfer: MAC > Nakamichi CR-5A (Dolby-B in) > Edirol FA-66 > 
Wavelab 2448 > CD-Wave (24bit output) > TLH > FLAC 2448 tagged. 
Transferred by Andrew F. 08/2021

Note: There was a tech-issue, the first three songs were added 
to the beginning of the 1st-Set MAC from an alternate recording. 
ID-117589 patches; Peggy-O 0:00 > 0:35, and Drums 6:46 > 8:31.

    length     expanded size    cdr  WAVE problems  fmt   ratio  filename
     5:17.747      91511084 B   cxx   --   ---xx   flac  0.7574  gd1982-09-23s1t01.flac
     4:09.680      71907884 B   cxx   --   ---xx   flac  0.7526  gd1982-09-23s1t02.flac
     6:58.773     120606764 B   cxx   --   ---xx   flac  0.7401  gd1982-09-23s1t03.flac
     8:28.547     146461484 B   cxx   --   ---xx   flac  0.7359  gd1982-09-23s1t04.flac
     8:29.533     146745644 B   cxx   --   ---xx   flac  0.7460  gd1982-09-23s1t05.flac
     3:32.280      61136684 B   cxx   --   ---xx   flac  0.7519  gd1982-09-23s1t06.flac
     5:06.747      88343084 B   cxx   --   ---xx   flac  0.7583  gd1982-09-23s1t07.flac
     8:21.613     144464684 B   cxx   --   ---xx   flac  0.7422  gd1982-09-23s1t08.flac
    11:34.264     199947950 B   cxx   --   ---xx   flac  0.7476  gd1982-09-23s1t09.flac
     7:00.227     121025324 B   cxx   --   ---xx   flac  0.7645  gd1982-09-23s2t01.flac
     6:32.533     113049644 B   cxx   --   ---xx   flac  0.7196  gd1982-09-23s2t02.flac
     6:49.453     117922604 B   cxx   --   ---xx   flac  0.7471  gd1982-09-23s2t03.flac
     7:53.720     136431404 B   cxx   --   ---xx   flac  0.7131  gd1982-09-23s2t04.flac
     6:42.947     116048684 B   cxx   --   ---xx   flac  0.7378  gd1982-09-23s2t05.flac
     8:55.053     154095404 B   cxx   --   ---xx   flac  0.7053  gd1982-09-23s2t06.flac
     7:44.013     133635884 B   cxx   --   ---xx   flac  0.6824  gd1982-09-23s2t07.flac
     8:54.893     154049324 B   cxx   --   ---xx   flac  0.7202  gd1982-09-23s2t08.flac
     7:10.320     123932204 B   cxx   --   ---xx   flac  0.7357  gd1982-09-23s2t09.flac
    10:05.693     174439724 B   cxx   --   ---xx   flac  0.7187  gd1982-09-23s2t10.flac
     3:46.760      65306924 B   cxx   --   ---xx   flac  0.7480  gd1982-09-23s2t11.flac
     4:18.547      74461484 B   cxx   --   ---xx   flac  0.7681  gd1982-09-23s2t12.flac
     7:40.920     132745016 B   cxx   --   ---xx   flac  0.7265  gd1982-09-23s2t13.flac
   155:34.264    2688268886 B                            0.7344  (22 files)

No errors occured.




More information about the bittorrent mailing list