[bittorrent] Deep Blue Sun We're Down For The Count Celebrating The Life Of Count M'Butu Music On Main Street Lilburn, Georgia 8/15/2021 Z-Man Schoeps CCM4V'S FOB)

Automated Mailer noreply-bt.e at etree.org
Tue Aug 24 22:26:57 UTC 2021


Band:           Other
Torrent Name:   Deep Blue Sun We're Down For The Count Celebrating The Life Of Count M'Butu Music On Main Street Lilburn, Georgia 8/15/2021 Z-Man Schoeps CCM4V'S FOB) 
Uploaded by:    zmanatl
DB Link:        
Details:        http://bt.etree.org/details.php?id=613587

Contact the seeder at http://db.etree.org/zmanatl

If the link to this show does not work, it was probably removed for
being non-trade-friendly.

Description / text file:
-------------------------
Deep Blue Sun
We're Down For The Count
Celebrating The Life Of Count M'Butu
Music On Main Street
Lilburn, Georgia
8/15/2021 

Source: Schoeps CCM4V'S>Lunatec V2>Sound Devices 722 (24/44.1)
FOB/DFC/KFC/ZFC/AARP 30' From Stage, 6 1/2' High
DSP: Sound Devices 722>Sound Forge 10.0>CD Wave>flac(16)
ID3 Tagged In Foobar 2000
Recorded By: Z-Man
Seeded By: Z-Man
A Team Dirty South Recording

Disc I

01 Jam >
02 ?  
03 Not Wastin' Time 
04 Back To You
05 ?
06 ?
07 The Music Never Stopped >
08 Magic Rhyme
09 Moondog >
10 Rap

John Marsh - Keyboards And Vocals
Katie Moore - Guitar And Vocals
Matt Lynn - Guitar
Buddha - Bass And Vocals
Steve Baird - Percussion
? - Drums 

deep2021-08-15d01t01.flac:454398f5398a55a425f7c80d9d9e3456
deep2021-08-15d01t02.flac:79fce2345eadbf758ac94c9575262e95
deep2021-08-15d01t03.flac:8ae36fd5e40c809e0dc12d9a4cd07d84
deep2021-08-15d01t04.flac:793e0745f5d6a939ffabcf9e918c7e0a
deep2021-08-15d01t05.flac:2eefa3ed19e59cd1f6693d4ac5cd852b
deep2021-08-15d01t06.flac:8a28c332975026aeeb48a459c576a757
deep2021-08-15d01t07.flac:c807558a5d09945bb930524c73d2e5a0
deep2021-08-15d01t08.flac:db4832912a548436a7c756b97b790939
deep2021-08-15d01t09.flac:94b68397b1eec4793e6a73e5eb23cf72
deep2021-08-15d01t10.flac:3c912b4a4c6ef7e1053a2a654dc923e3

length     expanded size    cdr  WAVE problems  fmt   ratio  filename
     6:46.40       71712524 B   ---   --   ---xx   flac  0.4766  deep2021-08-15d01t01.flac
     7:37.12       80643068 B   ---   --   ---xx   flac  0.5753  deep2021-08-15d01t02.flac
     6:34.63       69649820 B   ---   --   ---xx   flac  0.5588  deep2021-08-15d01t03.flac
     6:16.41       66422876 B   ---   --   ---xx   flac  0.5272  deep2021-08-15d01t04.flac
     8:42.14       92113772 B   ---   --   ---xx   flac  0.5158  deep2021-08-15d01t05.flac
     6:03.44       64136732 B   ---   --   ---xx   flac  0.5367  deep2021-08-15d01t06.flac
     6:50.23       72378140 B   ---   --   ---xx   flac  0.5896  deep2021-08-15d01t07.flac
     6:36.24       69910892 B   ---   --   ---xx   flac  0.5535  deep2021-08-15d01t08.flac
     6:42.15       70948124 B   ---   --   ---xx   flac  0.5619  deep2021-08-15d01t09.flac
     5:19.06       56285756 B   ---   --   ---xx   flac  0.5539  deep2021-08-15d01t10.flac
    67:28.57      714201704 B                            0.5445  (10 files)






More information about the bittorrent mailing list