[bittorrent] Ralph Roddenbery Band We're Down For The Count Celebrating The Life Of Count M'Butu Music On Main Street Lilburn, Georgia 8/15/2021 (Z-Man Schoeps CCM4V'S FOB)

Automated Mailer noreply-bt.e at etree.org
Mon Aug 23 17:48:03 UTC 2021


Band:           Ralph Roddenbery
Torrent Name:   Ralph Roddenbery Band We're Down For The Count Celebrating The Life Of Count M'Butu Music On Main Street Lilburn, Georgia 8/15/2021 (Z-Man Schoeps CCM4V'S FOB) 
Uploaded by:    zmanatl
DB Link:        
Details:        http://bt.etree.org/details.php?id=613580

Contact the seeder at http://db.etree.org/zmanatl

If the link to this show does not work, it was probably removed for
being non-trade-friendly.

Description / text file:
-------------------------
Ralph Roddenbery Band
We're Down For The Count
Celebrating The Life Of Count M'Butu
Music On Main Street
Lilburn, Georgia
8/15/2021 

Source: Schoeps CCM4V'S>Lunatec V2>Sound Devices 722 (24/44.1)
FOB/DFC/KFC/ZFC/AARP 30' From Stage, 6 1/2' High
DSP: Sound Devices 722>Sound Forge 10.0>CD Wave>flac(16)
ID3 Tagged In Foobar 2000
Recorded By: Z-Man
Seeded By: Z-Man
A Team Dirty South Recording

Disc I

01 Ralph Banter
02 *Let The Sun Shine In
03 ?
04 Sound Of The Day
05 Shadow Walk Away From Me
06 *That One's Gonna Leave A Mark
07 *#Love Is Alive And Well
08 *#I Love You
09 Ralph Banter
10 *#@Maude Only Knows
11 Mark Chester/Andy Estes Banter/Outro

* With Scott Bacik On Acoustic Guitar
# With Ian Klin On Keyboards
@ With Scott Mecredy On Vocals

Ralph Roddenbery - Acousic Guitar And Vocals
"Beadle" Andrews - Electric Guitar
Spender Pope - Keyboards
Tommy Jones - Bass
Samantha Alessi Jones - Vocals
Richie Jones - Drums And Vocals

ralph2021-08-15d01t01.flac:7b9a5e4d272f591ce83abd696ced876f
ralph2021-08-15d01t02.flac:581ceffd83b93d0236a88391c611c124
ralph2021-08-15d01t03.flac:937f124c7f8cc36b50661cf99061279a
ralph2021-08-15d01t04.flac:62e4b6916c797c738a3ece40baeb94d5
ralph2021-08-15d01t05.flac:14b696add616c9bbd61c382544f39a85
ralph2021-08-15d01t06.flac:23bec758bebab68c9e4014e8c8576dbd
ralph2021-08-15d01t07.flac:36d4225dcf1d0b440e95cdcab184d645
ralph2021-08-15d01t08.flac:f0b0b9fbf0aa95fdba8bd81a70c065f3
ralph2021-08-15d01t09.flac:4b09c172c232fb1f9d0988dca3d621c7
ralph2021-08-15d01t10.flac:283d46d2829e71482d94448cfb06d8b9
ralph2021-08-15d01t11.flac:475880c5ed0e0c5ef2179eeb087631fc

length     expanded size    cdr  WAVE problems  fmt   ratio  filename
     0:43.55        7714604 B   ---   --   ---xx   flac  0.3243  ralph2021-08-15d01t01.flac
     5:16.65       55895324 B   ---   --   ---xx   flac  0.4830  ralph2021-08-15d01t02.flac
     5:44.35       60763964 B   ---   --   ---xx   flac  0.4759  ralph2021-08-15d01t03.flac
     7:30.07       79396508 B   ---   --   ---xx   flac  0.4620  ralph2021-08-15d01t04.flac
     5:22.25       56859644 B   ---   --   ---xx   flac  0.5345  ralph2021-08-15d01t05.flac
     5:59.38       63417020 B   ---   --   ---xx   flac  0.4651  ralph2021-08-15d01t06.flac
     6:54.21       73079036 B   ---   --   ---xx   flac  0.5339  ralph2021-08-15d01t07.flac
     4:28.34       47355212 B   ---   --   ---xx   flac  0.4109  ralph2021-08-15d01t08.flac
     1:52.52       19879148 B   ---   --   ---xx   flac  0.3356  ralph2021-08-15d01t09.flac
     5:23.72       57146588 B   ---   --   ---xx   flac  0.5266  ralph2021-08-15d01t10.flac
     5:27.14       57715772 B   ---   --   ---xx   flac  0.3655  ralph2021-08-15d01t11.flac
    54:43.43      579222820 B                            0.4684  (11 files)





More information about the bittorrent mailing list