[bittorrent] Donna Hopkins Band We're Down For The Count Celebrating The Life Of Count M'Butu Music On Main Street Lilburn, Georgia 8/15/2021 (Z-MAn Schoeps CCM4V'S FOB)

Automated Mailer noreply-bt.e at etree.org
Mon Aug 23 12:36:44 UTC 2021


Band:           Donna Hopkins
Torrent Name:   Donna Hopkins Band We're Down For The Count Celebrating The Life Of Count M'Butu Music On Main Street Lilburn, Georgia 8/15/2021 (Z-MAn Schoeps CCM4V'S FOB) 
Uploaded by:    zmanatl
DB Link:        
Details:        http://bt.etree.org/details.php?id=613575

Contact the seeder at http://db.etree.org/zmanatl

If the link to this show does not work, it was probably removed for
being non-trade-friendly.

Description / text file:
-------------------------
Donna Hopkins Band
We're Down For The Count
Celebrating The Life Of Count M'Butu
Music On Main Street
Lilburn, Georgia
8/15/2021 

Source: Schoeps CCM4V'S>Lunatec V2>Sound Devices 722 (24/44.1)
FOB/DFC/KFC/ZFC/AARP 30' From Stage, 6 1/2' High
DSP: Sound Devices 722>Sound Forge 10.0>CD Wave>flac(16)
ID3 Tagged In Foobar 2000
Recorded By: Z-Man
Seeded By: Z-Man
A Team Dirty South Recording

Disc I

01 Donna Banter
02 Wheels
03 *#Sorry
04 *#My Heart Is Full
05 *Born With It
06 @^I'm So In Love With You
07 @^Stormy Monday
08 @^Drink Muddy Water
09 @^Georgia

* With Samantha Alessi Jones On Vocals
# Guarav Malhotra On Percussion
@ With Rita Graham On Vocals
^ WIth Tyler Martelli On Guitar

Donna Hopkins - Guitar And Vocals
Faye Petree - Fiddle And Vocals
Kathy Holmes - Flute And Vocals
Ian Klin - Keyboards
Justin Boudreau - Bass
Richie Jones - Drums And Vocals

donna2021-08-15d01t01.flac:b2f3a3418d5cc1aa979573a2d7a8e18e
donna2021-08-15d01t02.flac:f09646740a3a38f25fcabe385555beca
donna2021-08-15d01t03.flac:056ca146c77b03cfd293094c9cbdc2da
donna2021-08-15d01t04.flac:8dc85f31d6491111eed0ed97a347a94f
donna2021-08-15d01t05.flac:f0fadd35994a78e43c788436f308ab81
donna2021-08-15d01t06.flac:dd53eac36ac4f08db1623aa9da05724e
donna2021-08-15d01t07.flac:627d648f84140576e6ead7aa62b573e6
donna2021-08-15d01t08.flac:ff2b1dba1ade50b45a64bf6d0b1cfaee
donna2021-08-15d01t09.flac:4e1bd893d5032d29b97b1cbf6bccdedd

 length     expanded size    cdr  WAVE problems  fmt   ratio  filename
     1:01.30       10831004 B   ---   --   ---xx   flac  0.3441  donna2021-08-15d01t01.flac
     8:05.34       85634012 B   ---   --   ---xx   flac  0.4804  donna2021-08-15d01t02.flac
     5:52.17       62132828 B   ---   --   ---xx   flac  0.4950  donna2021-08-15d01t03.flac
     8:23.51       88849196 B   ---   --   ---xx   flac  0.4272  donna2021-08-15d01t04.flac
    13:10.22      139407788 B   ---   --   ---xx   flac  0.5002  donna2021-08-15d01t05.flac
     5:04.43       53726780 B   ---   --   ---xx   flac  0.4844  donna2021-08-15d01t06.flac
     7:49.71       82898636 B   ---   --   ---xx   flac  0.4355  donna2021-08-15d01t07.flac
     5:19.50       56389244 B   ---   --   ---xx   flac  0.4555  donna2021-08-15d01t08.flac
     6:34.22       69553388 B   ---   --   ---xx   flac  0.4021  donna2021-08-15d01t09.flac
    61:21.40      649422876 B                            0.4605  (9 files)
 





More information about the bittorrent mailing list