[bittorrent] Gabe Dixon Band Coolray Field Lawrenceville, Georgia 8/21/2021 (Z-Man Schoeps CCM4V'S FOB)

Automated Mailer noreply-bt.e at etree.org
Mon Aug 23 05:16:27 UTC 2021


Band:           Other
Torrent Name:   Gabe Dixon Band Coolray Field Lawrenceville, Georgia 8/21/2021  (Z-Man Schoeps CCM4V'S FOB)
Uploaded by:    zmanatl
DB Link:        
Details:        http://bt.etree.org/details.php?id=613574

Contact the seeder at http://db.etree.org/zmanatl

If the link to this show does not work, it was probably removed for
being non-trade-friendly.

Description / text file:
-------------------------
Gabe Dixon Band
Coolray Field
Lawrenceville, Georgia
8/21/2021 

Source: Schoeps CCM4V'S>Lunatec V2>Sound Devices 722 (24/44.1)
FOB/DFC/KFC/ZFC/AARP 75' From Stage, 6 1/2' High
DSP: Sound Devices 722>Sound Forge 10.0>CD Wave>flac(16)
ID3 Tagged In Foobar 2000
Recorded By: Z-Man
Seeded By: Z-Man
A Team Dirty South Recording

Disc I 

01 ?
02 ?
03 Further The Sky
04 I Believe In Our Love
05 ?
06 Running On Fumes
07 *Song Don't Fail Me Now
08 Till You're Gone

* With Gabe On Guitar

Gabe Dixon - Keyboards, Guitar, And Vocals
Dan Asher - Bass
Randy Schrager - Drums
 
gabe3032-08-21d01t01.flac:1089e0d675b4a5c369638fb24fbbb8a7
gabe3032-08-21d01t02.flac:2cdca1710b78643a523ae2d32615f2d6
gabe3032-08-21d01t03.flac:65ac7f6875a642dc87b601112812cfdf
gabe3032-08-21d01t04.flac:1ebc1396944027865f01cb8fb027f676
gabe3032-08-21d01t05.flac:715c7927a6113b55021159cd219be691
gabe3032-08-21d01t06.flac:4080e6c56dd77bbfc474519949ac0c85
gabe3032-08-21d01t07.flac:3eb171193213dda86c1206b863cb9c20
gabe3032-08-21d01t08.flac:1251f3a2a782c37d654d7fe540789470

 length     expanded size    cdr  WAVE problems  fmt   ratio  filename
     4:15.06       44996156 B   ---   --   ---xx   flac  0.4317  gabe3032-08-21d01t01.flac
     3:36.63       38250620 B   ---   --   ---xx   flac  0.4228  gabe3032-08-21d01t02.flac
     5:20.07       56464508 B   ---   --   ---xx   flac  0.3901  gabe3032-08-21d01t03.flac
     4:10.68       44259980 B   ---   --   ---xx   flac  0.4726  gabe3032-08-21d01t04.flac
     6:03.68       64193180 B   ---   --   ---xx   flac  0.3704  gabe3032-08-21d01t05.flac
     6:45.65       71594924 B   ---   --   ---xx   flac  0.4004  gabe3032-08-21d01t06.flac
     4:14.00       44805644 B   ---   --   ---xx   flac  0.3862  gabe3032-08-21d01t07.flac
     5:07.41       54251276 B   ---   --   ---xx   flac  0.4131  gabe3032-08-21d01t08.flac
    39:34.18      418816288 B                            0.4076  (8 files)




More information about the bittorrent mailing list