[bittorrent] Brown-Eyed Women Music On Main Street Lilburn, Georgia 8/20/2021 (Z-Man Schoeps CCM4V'S FOB)

Automated Mailer noreply-bt.e at etree.org
Sat Aug 21 20:06:49 UTC 2021


Band:           Other
Torrent Name:   Brown-Eyed Women  Music On Main Street Lilburn, Georgia 8/20/2021 (Z-Man Schoeps CCM4V'S FOB) 
Uploaded by:    zmanatl
DB Link:        
Details:        http://bt.etree.org/details.php?id=613556

Contact the seeder at http://db.etree.org/zmanatl

If the link to this show does not work, it was probably removed for
being non-trade-friendly.

Description / text file:
-------------------------
Brown-Eyed Women 
Music On Main Street
Lilburn, Georgia
8/20/2021 

Source: Schoeps CCM4V'S>Lunatec V2>Sound Devices 722 (24/44.1)
FOB/DFC/KFC/ZFC/AARP 30' From Stage, 6 1/2' High
DSP: Sound Devices 722>Sound Forge 10.0>CD Wave>flac(16)
ID3 Tagged In Foobar 2000
Recorded By: Z-Man
Seeded By: Z-Man
A Team Dirty South Recording

Disc I 1st Set

01 *Shakedown Street 
02 Bertha
03 Ramble On Rose
04 Sugaree
05 Stagger Lee
06 That's What Love Will Make You Do 
07 They Love Each Other >
08 Cassidy 

Disc II 2nd Set

01 Banter
02 Feel Like A Stranger >
03 Eleanmor Rigby Jam >
04 FeelIlke A Stranger 
05 Blow Away 
06 Truckin' >
07 New Speedway Boogie >
08 Let It Grow >
09 The Wheel >
10 Stella Blue >
11 Not Fade Away

Disc III Encore

01 Banter
02 U S Blues
03 Band Introductions 
04 Brown-Eyed Women 

* With Dancin' In The Street Tease

Joni Bottari- Guitar
Denise Parent - Drums And Vocals
Katie Moore - Guitar And Vocals
Caroline Kiloh - Keyboard And Vocals
Dana Carroll- Bass
Jill Simmons - Vocals

 brown2021-08-20d01t01.flac:a6542097913bdaf16e128e25ecb3c252
brown2021-08-20d01t0
2.flac:ead06f519b0ed7b88c679102031aec65
brown2021-08-20d01t03.flac:86d916364534ff30afac335c7d84b113
brown2021-08-20d01t04.flac:b6a9a7321e60aa0fe0311ccb8f94c0d8
brown2021-08-20d01t05.flac:2fc3edd4b89e96a99fd33a47fa514e14
brown2021-08-20d01t06.flac:acf2e29a490d67d5f14e5c10885e9c8c
brown2021-08-20d01t07.flac:c09c43b5f23941108102b95dfcbeb0dd
brown2021-08-20d01t08.flac:ab2e3afa2b3308077a3621ed4da8dee5
brown2021-08-20d01t09.flac:716b01e2ff6c06253f72042c4779b40f
brown2021-08-20d02t01.flac:f3870e1dfe1d709498e1cbe619c14798
brown2021-08-20d02t02.flac:016f43491c18062dcf5f484d6c686ddb
brown2021-08-20d02t03.flac:926c4453b6b1129d77935379336d0098
brown2021-08-20d02t04.flac:528980743c6f88736102c3375b540abd
brown2021-08-20d02t05.flac:c74ab0f55087f194430713d987a37aa8
brown2021-08-20d02t06.flac:580a5640bc69eea83a1e87b660bbb862
brown2021-08-20d02t07.flac:4c64f201ee4ff23813733a95b25a2184
brown2021-08-20d02t08.flac:e6f4e557804cc07d66e88c5afb97df20
brown2021-08-20d02t09.flac:59285f74c44d5f37ff5a73e0fbedf382
brown2021-08-20d02t10.flac:7c3c53d04fa999cfacf43c6c3bf10090
brown2021-08-20d02t11.flac:d589036f27a5a0ca32a652684a02e8f4
brown2021-08-20d03t01.flac:289455c59dc820b22cc9944435783a79
brown2021-08-20d03t02.flac:5c71cb1526c3a7de78df6350e6089cda
brown2021-08-20d03t03.flac:1099f01308b92a9f41399c79a5bb2c0e
brown2021-08-20d03t04.flac:3ef23707bf0edc20fec63a594ca4d9ca

  length     expanded size    cdr  WAVE problems  fmt   ratio  filename
    12:09.02      128600348 B   ---   --   ---xx   flac  0.4743  brown2021-08-20d01t01.flac
     0:00.09          21212 B   --s   --   ---xx   flac  0.6557  brown2021-08-20d01t02.flac
     9:12.25       97431644 B   ---   --   ---xx   flac  0.4734  brown2021-08-20d01t03.flac
     7:02.49       74556092 B   ---   --   ---xx   flac  0.4729  brown2021-08-20d01t04.flac
    16:44.39      177197372 B   ---   --   ---xx   flac  0.4560  brown2021-08-20d01t05.flac
     7:38.22       80842988 B   ---   --   ---xx   flac  0.4775  brown2021-08-20d01t06.flac
     9:24.54       99616652 B   ---   --   ---xx   flac  0.4972  brown2021-08-20d01t07.flac
     8:33.43       90594380 B   ---   --   ---xx   flac  0.5022  brown2021-08-20d01t08.flac
     8:50.13       93522620 B   ---   --   ---xx   flac  0.4919  brown2021-08-20d01t09.flac
     1:32.64       16379372 B   ---   --   ---xx   flac  0.3461  brown2021-08-20d02t01.flac
     8:08.38       86172620 B   ---   --   ---xx   flac  0.5132  brown2021-08-20d02t02.flac
     2:15.15       23849324 B   ---   --   ---xx   flac  0.5142  brown2021-08-20d02t03.flac
     1:58.55       20944604 B   ---   --   ---xx   flac  0.4523  brown2021-08-20d02t04.flac
    10:01.60      106157564 B   ---   --   ---xx   flac  0.4909  brown2021-08-20d02t05.flac
     6:53.68       73013180 B   ---   --   ---xx   flac  0.5034  brown2021-08-20d02t06.flac
     8:38.30       91445804 B   ---   --   ---xx   flac  0.4754  brown2021-08-20d02t07.flac
     9:31.41      100820876 B   ---   --   ---xx   flac  0.5588  brown2021-08-20d02t08.flac
     5:39.18       59841980 B   ---   --   ---xx   flac  0.5255  brown2021-08-20d02t09.flac
     9:49.04      103909052 B   ---   --   ---xx   flac  0.4532  brown2021-08-20d02t10.flac
     6:56.17       73422428 B   ---   --   ---xx   flac  0.5288  brown2021-08-20d02t11.flac
     2:08.35       22661564 B   ---   --   ---xx   flac  0.3840  brown2021-08-20d03t01.flac
     5:07.23       54208940 B   ---   --   ---xx   flac  0.5245  brown2021-08-20d03t02.flac
     1:18.00       13759244 B   ---   --   ---xx   flac  0.4467  brown2021-08-20d03t03.flac
     7:50.72       83077388 B   ---   --   ---xx   flac  0.5238  brown2021-08-20d03t04.flac
   167:25.46     1772047248 B                            0.4894  (24 files)





More information about the bittorrent mailing list