[bittorrent] Brother Fat We're Down For The Count Celebrating The Life Of Count M'Butu Music On Main Street) Lilburn, Georgia 8/15/2021 (Z-Man Schoeps CCM4V'S FOB

Automated Mailer noreply-bt.e at etree.org
Sat Aug 21 14:36:55 UTC 2021


Band:           Other
Torrent Name:   Brother Fat We're Down For The Count Celebrating The Life Of Count M'Butu Music On Main Street) Lilburn, Georgia 8/15/2021  (Z-Man Schoeps CCM4V'S FOB 
Uploaded by:    zmanatl
DB Link:        
Details:        http://bt.etree.org/details.php?id=613552

Contact the seeder at http://db.etree.org/zmanatl

If the link to this show does not work, it was probably removed for
being non-trade-friendly.

Description / text file:
-------------------------
Brother Fat
We're Down For The Count
Celebrating The Life Of Count M'Butu
Music On Main Street
Lilburn, Georgia
8/15/2021 

Source: Schoeps CCM4V'S>Lunatec V2>Sound Devices 722 (24/44.1)
FOB/DFC/KFC/ZFC/AARP 30' From Stage, 6 1/2' High
DSP: Sound Devices 722>Sound Forge 10.0>CD Wave>flac(16)
ID3 Tagged In Foobar 2000
Recorded By: Z-Man
Seeded By: Z-Man
A Team Dirty South Recording

Disc I

01 Mark Chester Banter
02 Stormy Monday
03 Guarav Banter/Band Introductions
04 *Hey Pockey Way
05 *Yellow Moon
06 Seven Spanish Angels
07 Mark Chester Banter/Outo

* With Dave Stevens On Percussion

Mark Chester - Percussion And Vocals
Joel Formines - Guitar And Vocals
Tyler Neal - Guitar And Vocals
Faye Petree - Fiddle
JW Powell - Keyboards
Tyler Martelli - Bass
Guarav Malhotra - Percussion
Marty Kelly - Harmonica
Darrin Goot - Drums 

brother2021-08-15d01t01.flac:0368c09f89ce4503db806ebc0cd585b7
brother2021-08-15d01t02.flac:9fc745d3c04fe0df34066bcf26181aeb
brother2021-08-15d01t03.flac:a37ca09279148b16c721290ada59fb6b
brother2021-08-15d01t04.flac:a394b2b37e3290d4e5f5051d04a1d27e
brother2021-08-15d01t05.flac:f832b45a774bcbedc365f52f2e6c8b3b
brother2021-08-15d01t06.flac:852a183c900e9d78952f7ab3520652ef
brother2021-08-15d01t07.flac:defa2a83aa95c6dc153b8812199ce546

 length     expanded size    cdr  WAVE problems  fmt   ratio  filename
     2:50.51       30107996 B   ---   --   ---xx   flac  0.3513  brother2021-08-15d01t01.flac
     7:34.09       80106812 B   ---   --   ---xx   flac  0.5210  brother2021-08-15d01t02.flac
     1:37.53       17235500 B   ---   --   ---xx   flac  0.3289  brother2021-08-15d01t03.flac
     6:42.37       70999868 B   ---   --   ---xx   flac  0.5524  brother2021-08-15d01t04.flac
    10:09.26      107488796 B   ---   --   ---xx   flac  0.5776  brother2021-08-15d01t05.flac
     8:44.38       92523020 B   ---   --   ---xx   flac  0.4932  brother2021-08-15d01t06.flac
     0:59.64       10558172 B   ---   --   ---xx   flac  0.3374  brother2021-08-15d01t07.flac
    38:38.53      409020164 B                            0.5097  (7 files)






More information about the bittorrent mailing list