[bittorrent] Barefoot Geno Solo Acoustic We're Down For The Count Celebrating The Life Of Count M'Butu Music On Main Street Lilburn, Georgia 8/15/2021 (Z-MAn Schoeps CCM4V'S FOB)

Automated Mailer noreply-bt.e at etree.org
Fri Aug 20 17:33:34 UTC 2021


Band:           Other
Torrent Name:   Barefoot Geno Solo Acoustic We're Down For The Count Celebrating The Life Of Count M'Butu Music On Main Street Lilburn, Georgia 8/15/2021  (Z-MAn Schoeps CCM4V'S FOB)
Uploaded by:    zmanatl
DB Link:        
Details:        http://bt.etree.org/details.php?id=613541

Contact the seeder at http://db.etree.org/zmanatl

If the link to this show does not work, it was probably removed for
being non-trade-friendly.

Description / text file:
-------------------------
Barefoot Geno Solo Acoustic
We're Down For The Count
Celebrating The Life Of Count M'Butu
Music On Main Street
Lilburn, Georgia
8/15/2021 

Source: Schoeps CCM4V'S>Lunatec V2>Sound Devices 722 (24/44.1)
FOB/DFC/KFC/ZFC/AARP 30' From Stage, 6 1/2' High
DSP: Sound Devices 722>Sound Forge 10.0>CD Wave>flac(16)
ID3 Tagged In Foobar 2000
Recorded By: Z-Man
Seeded By: Z-Man
A Team Dirty South Recording

Disc I

01 Lay Down Sally
02 Wild World
03 Day After Day
04 Waitin' On A Friend
05 Is She Really Goin' Out With Him
06 The Breakup Song 
07 Leavin' Nashville With A Broken Heart
08 Loser
09 Me And Julia Down By The Schoolyard
10 Down On Mainstreet
11 Have You Ever Seen The Rain
12 Mary Jane's Last Dance

Disc II

01 Unknown Legend
02 Richie Jones Banter On Music And Count M'Butu
03 Son Of A Son Of A Sailor
04 The Joker
05 No Woman, No Cry
06 Don't Think Twice, It's Alright
07 One Headlight
08 Graciella Lopez Artwork Mention
09 Stone Me
10 Back On The Train
11 When You're Falling

* My Local Friend Barefoot Geno was on hand to play "tweener" sets between all the Main Stage Acts. This is a compilation of all his mini sets.

barefoot2021-08-15d01t01.flac:6f60daf039fe623f784fe0a8b121630c
barefoot2021-08-15d01t02.flac:81fde12f956c876a98b0d192ba71beaf
barefoot2021-08-15d01t03.flac:0aeed154cd8265d6aabfc5ae72fee6b6
barefoot2021-08-15d01t04.flac:4905742f6deb652338e9995203b89796
barefoot2021-08-15d01t05.flac:7a935b808edeec3fcc49e07198fcff26
barefoot2021-08-15d01t06.flac:22e9404bb07ebe4c3d42000767588df0
barefoot2021-08-15d01t07.flac:d2b2fbbbd54fd5680c88b4551c2a2121
barefoot2021-08-15d01t08.flac:72240d48777c047fe9210fd53c1c4cd4
barefoot2021-08-15d01t09.flac:9d3197b42bd7b45b0ec16860ef596c45
barefoot2021-08-15d01t10.flac:99532940058862966fbc2b811d568ac5
barefoot2021-08-15d01t11.flac:8891623819e9281970ba95ffb33b6c92
barefoot2021-08-15d01t12.flac:04b1d0b814bf180ba20724777cd1c93e
barefoot2021-08-15d02t01.flac:4d7ebc65334fb6da72914f2494028d8c
barefoot2021-08-15d02t02.flac:70c3f24be6f382c6c79919727af493be
barefoot2021-08-15d02t03.flac:db31cb12a9e7fd0d276674fd200ee3bb
barefoot2021-08-15d02t04.flac:438f5134f67813a940cb072d508d490a
barefoot2021-08-15d02t05.flac:03c5e4ba0279bdfc899d587ff5a6ad31
barefoot2021-08-15d02t06.flac:3e1035c4856a3197ecad5399188253d2
barefoot2021-08-15d02t07.flac:8f6cceafb6bb3d99e59d0cad3017f5bd
barefoot2021-08-15d02t08.flac:95328808c13c01d217049575f31e25d0
barefoot2021-08-15d02t09.flac:80c43025132e9cab048bf2d7fdf708ac
barefoot2021-08-15d02t10.flac:fc0f801086312555819cf0c3595332c8
barefoot2021-08-15d02t11.flac:d2eeaa6f3fd7bfb152ef22322fce7be3

  length     expanded size    cdr  WAVE problems  fmt   ratio  filename
     4:44.69       50259932 B   ---   --   ---xx   flac  0.4747  barefoot2021-08-15d01t01.flac
     4:15.62       45127868 B   ---   --   ---xx   flac  0.4737  barefoot2021-08-15d01t02.flac
     4:24.12       46597868 B   ---   --   ---xx   flac  0.4802  barefoot2021-08-15d01t03.flac
     5:28.60       58000364 B   ---   --   ---xx   flac  0.4682  barefoot2021-08-15d01t04.flac
     4:27.00       47098844 B   ---   --   ---xx   flac  0.4547  barefoot2021-08-15d01t05.flac
     5:14.33       55467260 B   ---   --   ---xx   flac  0.4757  barefoot2021-08-15d01t06.flac
     5:27.31       57755756 B   ---   --   ---xx   flac  0.4634  barefoot2021-08-15d01t07.flac
     6:27.28       68332700 B   ---   --   ---xx   flac  0.4596  barefoot2021-08-15d01t08.flac
     4:57.43       52491980 B   ---   --   ---xx   flac  0.4948  barefoot2021-08-15d01t09.flac
     3:16.55       34703804 B   ---   --   ---xx   flac  0.4960  barefoot2021-08-15d01t10.flac
     3:06.46       32918636 B   ---   --   ---xx   flac  0.5107  barefoot2021-08-15d01t11.flac
     5:01.27       53159948 B   ---   --   ---xx   flac  0.5191  barefoot2021-08-15d01t12.flac
     3:50.46       40680236 B   ---   --   ---xx   flac  0.4889  barefoot2021-08-15d02t01.flac
     3:48.17       40259228 B   ---   --   ---xx   flac  0.3803  barefoot2021-08-15d02t02.flac
     4:17.24       45391292 B   ---   --   ---xx   flac  0.4624  barefoot2021-08-15d02t03.flac
     4:23.58       46529660 B   ---   --   ---xx   flac  0.4730  barefoot2021-08-15d02t04.flac
     4:47.20       50673884 B   ---   --   ---xx   flac  0.4702  barefoot2021-08-15d02t05.flac
     4:47.60       50767964 B   ---   --   ---xx   flac  0.4921  barefoot2021-08-15d02t06.flac
     4:38.22       49090988 B   ---   --   ---xx   flac  0.4779  barefoot2021-08-15d02t07.flac
     0:55.18        9744380 B   ---   --   ---xx   flac  0.3814  barefoot2021-08-15d02t08.flac
     4:05.17       43258028 B   ---   --   ---xx   flac  0.4780  barefoot2021-08-15d02t09.flac
     4:27.01       47101196 B   ---   --   ---xx   flac  0.4668  barefoot2021-08-15d02t10.flac
     2:51.03       30171500 B   ---   --   ---xx   flac  0.4802  barefoot2021-08-15d02t11.flac
    99:44.02     1055583316 B                            0.4734  (23 files)




More information about the bittorrent mailing list