[bittorrent] Barry Richman Blues Jam The Rusty Barrel Marietta, Georgia 8/19/2021 (Z-Man Schoeps CCM4V'S FOB)

Automated Mailer noreply-bt.e at etree.org
Fri Aug 20 05:07:06 UTC 2021


Band:           Other
Torrent Name:   Barry Richman Blues Jam The Rusty Barrel Marietta, Georgia 8/19/2021 (Z-Man Schoeps CCM4V'S FOB)
Uploaded by:    zmanatl
DB Link:        
Details:        http://bt.etree.org/details.php?id=613537

Contact the seeder at http://db.etree.org/zmanatl

If the link to this show does not work, it was probably removed for
being non-trade-friendly.

Description / text file:
-------------------------
Barry Richman Blues Jam
The Rusty Barrel
Marietta, Georgia
8/19/2021 

Source: Schoeps CCM4V'S>Lunatec V2>Sound Devices 722 (24/44.1)
FOB/DFC/KFC/ZFC/AARP 6' From Stage, 6 1/2' High
DSP: Sound Devices 722>Sound Forge 10.0>CD Wave>flac(16)
ID3 Tagged In Foobar 2000
Recorded By: Z-Man
Seeded By: Z-Man
A Team Dirty South Recording

Disc I

01 Greeting By Dana 
02 New Orleans
03 You Ain't Alone
04 Stepppin' Out 
05 Europa
06 Outro

Barry Richman - Guitar 
Dana McCarthy - Bass And Vocals
Charlie Korch - Drums And Vocals

barry2021-08-19d01t01.flac:015b077e2c6575a85c28563ca360d925
barry2021-08-19d01t02.flac:be6ef01e21aef1b0b50ad3c9225c55f5
barry2021-08-19d01t03.flac:aadbf3345ecbe730cc5e2af5997ff2d4
barry2021-08-19d01t04.flac:962c2e1bf7e87629b39d9e48b5980dc7
barry2021-08-19d01t05.flac:896f0b7a245f1e3edc96af070327f221
barry2021-08-19d01t06.flac:f25dbd604c4f35b36c98c3f7d3a14dff

length     expanded size    cdr  WAVE problems  fmt   ratio  filename
     0:37.55        6656204 B   ---   --   ---xx   flac  0.2849  barry2021-08-19d01t01.flac
     4:06.58       43530860 B   ---   --   ---xx   flac  0.4814  barry2021-08-19d01t02.flac
     5:01.43       53197580 B   ---   --   ---xx   flac  0.5297  barry2021-08-19d01t03.flac
     4:33.10       48180764 B   ---   --   ---xx   flac  0.5436  barry2021-08-19d01t04.flac
     7:01.52       74386748 B   ---   --   ---xx   flac  0.4664  barry2021-08-19d01t05.flac
     1:40.24       17696492 B   ---   --   ---xx   flac  0.3580  barry2021-08-19d01t06.flac
    23:01.17      243648648 B                            0.4853  (6 files)






More information about the bittorrent mailing list