[bittorrent] Scott Mecredy And The Tangled Slinkies We're Down For The Count Celebrating The Life Of Count M'Butu Music On Main Street Lilburn, Georgia 8/15/2021 (Z-Man Schoeps CCM4V'S FOB)

Automated Mailer noreply-bt.e at etree.org
Fri Aug 20 03:10:48 UTC 2021


Band:           Other
Torrent Name:   Scott Mecredy And The Tangled Slinkies We're Down For The Count Celebrating The Life Of Count M'Butu Music On Main Street Lilburn, Georgia 8/15/2021 (Z-Man Schoeps CCM4V'S FOB)
Uploaded by:    zmanatl
DB Link:        
Details:        http://bt.etree.org/details.php?id=613536

Contact the seeder at http://db.etree.org/zmanatl

If the link to this show does not work, it was probably removed for
being non-trade-friendly.

Description / text file:
-------------------------
Scott Mecredy And The Tangled Slinkies
We're Down For The Count
Celebrating The Life Of Count M'Butu
Music On Main Street
Lilburn, Georgia
8/15/2021 

Source: Schoeps CCM4V'S>Lunatec V2>Sound Devices 722 (24/44.1)
FOB/DFC/KFC/ZFC/AARP 30' From Stage, 6 1/2' High
DSP: Sound Devices 722>Sound Forge 10.0>CD Wave>flac(16)
ID3 Tagged In Foobar 2000
Recorded By: Z-Man
Seeded By: Z-Man
A Team Dirty South Recording

Disc I

01 ?
02 Scott Banter On This Event
03 Take It Easy >
04 Sorrow And Pain 
05 *Yo Ho
06 *Push Me Again >
07 *Over And Over Again

* With Guarav Malhotra - Percussion

Scott Mecredy - Guitar And Vocals
"Beadle" Andrews - Guitar And Vocals
Spencer Popo - Keyboards
Brian Hall - Bass
Richie Jones - Drums And Vocals

scott2021-08-15d01t01.flac:65adb0fe29e38fcc38b9fa9c84a59ac2
scott2021-08-15d01t02.flac:b232f82c2eab22b78689fa826b7e1658
scott2021-08-15d01t03.flac:07daa2189690f1518b3ddfd99a7bf54e
scott2021-08-15d01t04.flac:d2cc9cb7ec60332eeb5d0da473a5f313
scott2021-08-15d01t05.flac:4587163692ef09c95e6fa316c2fa8ce1
scott2021-08-15d01t06.flac:5e09c63064a30310f6e1ceb3e93406fd
scott2021-08-15d01t07.flac:cfd501648d06de5b752f7dff3e7dc35a

length     expanded size    cdr  WAVE problems  fmt   ratio  filename
     6:45.32       71517308 B   ---   --   ---xx   flac  0.5174  scott2021-08-15d01t01.flac
     3:10.41       33612476 B   ---   --   ---xx   flac  0.3450  scott2021-08-15d01t02.flac
     6:57.64       73709372 B   ---   --   ---xx   flac  0.4849  scott2021-08-15d01t03.flac
     5:13.13       55243820 B   ---   --   ---xx   flac  0.5191  scott2021-08-15d01t04.flac
     4:50.54       51283052 B   ---   --   ---xx   flac  0.5289  scott2021-08-15d01t05.flac
     6:56.05       73394204 B   ---   --   ---xx   flac  0.5527  scott2021-08-15d01t06.flac
     7:09.61       75819116 B   ---   --   ---xx   flac  0.5869  scott2021-08-15d01t07.flac
    41:03.45      434579348 B                            0.5182  (7 files)







More information about the bittorrent mailing list