[bittorrent] Mutant County Line Susan's Front Porch Atlanta, Georgia 8/14/2021 (Z-Man Schoeps CCM4V'S FOB)

Automated Mailer noreply-bt.e at etree.org
Thu Aug 19 19:30:37 UTC 2021


Band:           Other
Torrent Name:   Mutant County Line Susan's Front Porch Atlanta, Georgia 8/14/2021 (Z-Man Schoeps CCM4V'S FOB) 
Uploaded by:    zmanatl
DB Link:        
Details:        http://bt.etree.org/details.php?id=613532

Contact the seeder at http://db.etree.org/zmanatl

If the link to this show does not work, it was probably removed for
being non-trade-friendly.

Description / text file:
-------------------------
Mutant County Line
Susan's Front Porch
Atlanta, Georgia
8/14/2021 

Source: Schoeps CCM4V'S>Lunatec V2>Sound Devices 722 (24/44.1)
FOB/DFC/KFC/ZFC/AARP 15' From Stage, 5 1/2' High
DSP: Sound Devices 722>Sound Forge 10.0>CD Wave>flac(16)
ID3 Tagged In Foobar 2000
Recorded By: Z-Man
Seeded By: Z-Man
A Team Dirty South Recording

Disc I

01 Soundcheck/Greeting By Pete
02 Blue Diamond Mine
03 Halfway To You
04 Mutant County
05 Sunday Morning Sidewalk
06 No Time For Love Dr. Jones
07 Sleepin' In The Airlock Again
08 Area 51
09 Sadder Than World War III

Disc II

01 16 Tons
02 Technical Difficulties
03 Lincoln Park Inn
04 Poncho And Lefty
05 She Left Me For My Clone
06 Minor Religion
07 Black Water
08 Purple Rain 
09 Ice Ice Baby

Pete Mastin - Guitar And Vocals
John Wagner Givens - Bass, Mandolin, And Vocals
Hank Siegelson - Guitar
Tom Lmbardo - Harmonica And Vocals
Brian Mobley - BanJo

mutant2021-08-14d01t01.flac:7aaec37de48ac87d2971d541a53952da
mutant2021-08-14d01t02.flac:0f863d3ef6b79daab0a13333e330f04d
mutant2021-08-14d01t03.flac:bfd2ba15bfae91bb25d55258f22d2d83
mutant2021-08-14d01t04.flac:a1faffaade7ffe72d319c8d63aa1ad76
mutant2021-08-14d01t05.flac:625d5f9bdad9b57e19c9c4e0df1ad3e7
mutant2021-08-14d01t06.flac:d65f214d6c8bbf7c0a9f1007ff23522d
mutant2021-08-14d01t07.flac:31fe15baabe30294786f962a34c79727
mutant2021-08-14d01t08.flac:921eb7a11b38a9d62a16c105fa11cb00
mutant2021-08-14d01t09.flac:5112fe86d2ef35ab567a0a30590172fc
mutant2021-08-14d02t01.flac:cae0686b56e144e8749b464e42c783c3
mutant2021-08-14d02t02.flac:ec40b89d23738ae28c387d3eaee250a2
mutant2021-08-14d02t03.flac:5cfc5b75d0afb8d2bce2ccb086f06eb2
mutant2021-08-14d02t04.flac:cca201aabc78e3eb0a77c2cbf02fd7cd
mutant2021-08-14d02t05.flac:0a86e0cfe31bba7ab1e3b42dcde5491b
mutant2021-08-14d02t06.flac:2dde7e958c2a98cae5617e34bfd32687
mutant2021-08-14d02t07.flac:62c3e693aeebffacc5d57489348ad3d4
mutant2021-08-14d02t08.flac:8aee2bdaeb012cd072674fea211687d9
mutant2021-08-14d02t09.flac:ce7577fef929d2b1f46e0e05843f52c6

 length     expanded size    cdr  WAVE problems  fmt   ratio  filename
     2:31.69       26798732 B   ---   --   ---xx   flac  0.4410  mutant2021-08-14d01t01.flac
     5:03.59       53588012 B   ---   --   ---xx   flac  0.5331  mutant2021-08-14d01t02.flac
     3:09.03       33346700 B   ---   --   ---xx   flac  0.5183  mutant2021-08-14d01t03.flac
     5:19.34       56351612 B   ---   --   ---xx   flac  0.4611  mutant2021-08-14d01t04.flac
     5:59.64       63478172 B   ---   --   ---xx   flac  0.4655  mutant2021-08-14d01t05.flac
     3:55.02       41458748 B   ---   --   ---xx   flac  0.4989  mutant2021-08-14d01t06.flac
     3:58.71       42150236 B   ---   --   ---xx   flac  0.5034  mutant2021-08-14d01t07.flac
     5:34.67       59075228 B   ---   --   ---xx   flac  0.4555  mutant2021-08-14d01t08.flac
     7:07.00       75322844 B   ---   --   ---xx   flac  0.4438  mutant2021-08-14d01t09.flac
     3:37.15       38314124 B   ---   --   ---xx   flac  0.4511  mutant2021-08-14d02t01.flac
     1:34.18       16623980 B   ---   --   ---xx   flac  0.3785  mutant2021-08-14d02t02.flac
     5:07.15       54190124 B   ---   --   ---xx   flac  0.4198  mutant2021-08-14d02t03.flac
     5:53.49       62384492 B   ---   --   ---xx   flac  0.4633  mutant2021-08-14d02t04.flac
     4:24.30       46640204 B   ---   --   ---xx   flac  0.4381  mutant2021-08-14d02t05.flac
     5:14.20       55436684 B   ---   --   ---xx   flac  0.4608  mutant2021-08-14d02t06.flac
     5:56.59       62937212 B   ---   --   ---xx   flac  0.5085  mutant2021-08-14d02t07.flac
     4:22.21       46266236 B   ---   --   ---xx   flac  0.4638  mutant2021-08-14d02t08.flac
     8:14.10       87165164 B   ---   --   ---xx   flac  0.4916  mutant2021-08-14d02t09.flac
    87:04.06      921528504 B                            0.4698  (18 files)






More information about the bittorrent mailing list