[bittorrent] Barry Richman And Alan Weisenberg Five Boroughs Pizza Cumming, Georgia 8/13/2021 (Z-Man Schoeps CCM4V'S FOB)

Automated Mailer noreply-bt.e at etree.org
Thu Aug 19 05:44:47 UTC 2021


Band:           Other
Torrent Name:   Barry Richman And Alan Weisenberg Five Boroughs Pizza Cumming, Georgia 8/13/2021 (Z-Man Schoeps CCM4V'S FOB)
Uploaded by:    zmanatl
DB Link:        
Details:        http://bt.etree.org/details.php?id=613521

Contact the seeder at http://db.etree.org/zmanatl

If the link to this show does not work, it was probably removed for
being non-trade-friendly.

Description / text file:
-------------------------
Barry Richman And Alan Weisenberg
Five Boroughs Pizza
Cumming, Georgia
8/13/2021

Source: Schoeps CCM4V'S>Lunatec V2>Sound Devices 722 (24/44.1)
FOB/DFC/KFC/ZFC/AARP 10' From Stage, 6 1/2' High
DSP: Sound Devices 722>Sound Forge 10.0>CD Wave>flac(16)
ID3 Tagged In Foobar 2000
Recorded By: Z-Man
Seeded By: Z-Man
A Team Dirty South Recording

Disc I

01 Stand By Me
02 Ain't No Love In The Heart Of The City
03 Folsom Prison Blues
04 Peaceful Easy Feeling
05 Three Little Birds
06 Who'll Stop The Rain
07 Midnight Hour
08 Memphis Women
09 Margaritaville
10 Brown-Eyed Girl
11 ?

Barry Richman - Guitar
Alan Weisenberg - Acoustic Guitar And Vocals

barry2021-08-13d01t01.flac:ecd63404ea4365544ff1f47a15487d4f
barry2021-08-13d01t02.flac:4d24362000ce9886e0455196a49853ca
barry2021-08-13d01t03.flac:a3a6fea3c2a12af69d7b7ac75c308f51
barry2021-08-13d01t04.flac:d7d11b2b9b0890dc3ebaecaeba6b14bd
barry2021-08-13d01t05.flac:dbb5220d1f9be05d08f2571f7a5a2a2e
barry2021-08-13d01t06.flac:c8256e123ca2eeccdb17e45b944f0ef3
barry2021-08-13d01t07.flac:7b4f58b159cdf5564bf8cd006d5257a7
barry2021-08-13d01t08.flac:b8ca9e5e0b07e3eea6dd447a3322c8d0
barry2021-08-13d01t09.flac:ba96cb2ebc72d9372911f0091e3c2977
barry2021-08-13d01t10.flac:f3b0c49ba86130f2ac6f04b20c204f77
barry2021-08-13d01t11.flac:7360de7be74c4a6ff5593221888d5b83

length     expanded size    cdr  WAVE problems  fmt   ratio  filename
     0:58.29       10299452 B   ---   --   ---xx   flac  0.4212  barry2021-08-13d01t01.flac
     3:04.38       32547020 B   ---   --   ---xx   flac  0.4243  barry2021-08-13d01t02.flac
     3:03.60       32422364 B   ---   --   ---xx   flac  0.4446  barry2021-08-13d01t03.flac
     4:36.25       48745244 B   ---   --   ---xx   flac  0.4427  barry2021-08-13d01t04.flac
     3:45.16       39727676 B   ---   --   ---xx   flac  0.4492  barry2021-08-13d01t05.flac
     2:55.23       30924140 B   ---   --   ---xx   flac  0.4600  barry2021-08-13d01t06.flac
     4:56.01       52216796 B   ---   --   ---xx   flac  0.4461  barry2021-08-13d01t07.flac
     3:24.51       36105596 B   ---   --   ---xx   flac  0.4264  barry2021-08-13d01t08.flac
     4:12.41       44549276 B   ---   --   ---xx   flac  0.4345  barry2021-08-13d01t09.flac
     4:05.65       43370924 B   ---   --   ---xx   flac  0.4493  barry2021-08-13d01t10.flac
     3:38.71       38622236 B   ---   --   ---xx   flac  0.4307  barry2021-08-13d01t11.flac
    38:41.45      409530724 B                            0.4405  (11 files)






More information about the bittorrent mailing list