[bittorrent] Bobby Lee Rodgers Trio We're Down For The Count Celebrating The Life Of Count M'Butu Music On Main Street Lilburn, Georgia 8/15/2021 (Z-Man Schoeps CCM4V'S FOB)

Automated Mailer noreply-bt.e at etree.org
Wed Aug 18 19:45:18 UTC 2021


Band:           Other
Torrent Name:   Bobby Lee Rodgers Trio We're Down For The Count Celebrating The Life Of Count M'Butu Music On Main Street Lilburn, Georgia 8/15/2021  (Z-Man Schoeps CCM4V'S FOB)
Uploaded by:    zmanatl
DB Link:        
Details:        http://bt.etree.org/details.php?id=613519

Contact the seeder at http://db.etree.org/zmanatl

If the link to this show does not work, it was probably removed for
being non-trade-friendly.

Description / text file:
-------------------------
Bobby Lee Rodgers Trio
We're Down For The Count
Celebrating The Life Of Count M'Butu
Music On Main Street
Lilburn, Georgia
8/15/2021 

Source: Schoeps CCM4V'S>Lunatec V2>Sound Devices 722 (24/44.1)
FOB/DFC/KFC/ZFC/AARP 30' From Stage, 6 1/2' High
DSP: Sound Devices 722>Sound Forge 10.0>CD Wave>flac(16)
ID3 Tagged In Foobar 2000
Recorded By: Z-Man
Seeded By: Z-Man
A Team Dirty South Recording

Disc I

01 Ike Stubblefield
02 Electronic President
03 *? > 
04 *#Percussion And Bass >
05 *#?
06 *#@?
07 *#@What A Difference A Day Makes
08 *#@?
09 *#California Shorts
10 The All Together Man
11 ?
12 Outro

* With Guarav Malhotra On Percussion
# With ? On Percussion
@ With Graciela Lopez On Vocals

Bobby Lee Rodgers - Guitar And Vocals
Brian Tate "Taze" - Bass And Vocals
Brian Lange "Phase" - Drums

bobby2021-08-15d01t01.flac:54271f8d70616943b15e3bff89a03f24
bobby2021-08-15d01t02.flac:1f9ed4860412146f09030e880b438aef
bobby2021-08-15d01t03.flac:68c5afaa95f958e0b908ad6d213869c6
bobby2021-08-15d01t04.flac:13d75ebcc4e676f79553264782406893
bobby2021-08-15d01t05.flac:bbe7f10347482b808f1dc85be8342bf0
bobby2021-08-15d01t06.flac:63e1aaad16ff0191332b5057522ce5d0
bobby2021-08-15d01t07.flac:23b7095e34f946cf34fe6dba12f70992
bobby2021-08-15d01t08.flac:e0d232ccf0a6325ba8a28b1ca2cec065
bobby2021-08-15d01t09.flac:7098c496dd488572827c675edb4bc908
bobby2021-08-15d01t10.flac:3d370e9a7166da2341ab8f113dc59ada
bobby2021-08-15d01t11.flac:8266a1e66bc0df20bb92b3bd25dfa582
bobby2021-08-15d01t12.flac:824f1c19789a91bb9234075e16924d14

 length     expanded size    cdr  WAVE problems  fmt   ratio  filename
     9:59.01      105665996 B   ---   --   ---xx   flac  0.5009  bobby2021-08-15d01t01.flac
     7:22.74       78142892 B   ---   --   ---xx   flac  0.5311  bobby2021-08-15d01t02.flac
     7:06.20       75193484 B   ---   --   ---xx   flac  0.5155  bobby2021-08-15d01t03.flac
     3:03.20       32328284 B   ---   --   ---xx   flac  0.5138  bobby2021-08-15d01t04.flac
     2:43.01       28755596 B   ---   --   ---xx   flac  0.5461  bobby2021-08-15d01t05.flac
     3:09.43       33440780 B   ---   --   ---xx   flac  0.4363  bobby2021-08-15d01t06.flac
     2:21.61       25015916 B   ---   --   ---xx   flac  0.3450  bobby2021-08-15d01t07.flac
     5:11.51       54980396 B   ---   --   ---xx   flac  0.4192  bobby2021-08-15d01t08.flac
     9:52.58      104565260 B   ---   --   ---xx   flac  0.5246  bobby2021-08-15d01t09.flac
     8:08.13       86113820 B   ---   --   ---xx   flac  0.5388  bobby2021-08-15d01t10.flac
    11:58.60      126796364 B   ---   --   ---xx   flac  0.5342  bobby2021-08-15d01t11.flac
     0:52.06        9186956 B   ---   --   ---xx   flac  0.3789  bobby2021-08-15d01t12.flac
    71:49.33      760185744 B                            0.5055  (12 files)






More information about the bittorrent mailing list