[bittorrent] Chip Jones Solo Acoustic Suburban Tap Marietta, Georgia 8/17/2021 (Z-MAn Schoeps CCM4V'S FOB)

Automated Mailer noreply-bt.e at etree.org
Wed Aug 18 01:53:04 UTC 2021


Band:           Other
Torrent Name:   Chip Jones Solo Acoustic Suburban Tap Marietta, Georgia 8/17/2021  (Z-MAn Schoeps CCM4V'S FOB)
Uploaded by:    zmanatl
DB Link:        
Details:        http://bt.etree.org/details.php?id=613505

Contact the seeder at http://db.etree.org/zmanatl

If the link to this show does not work, it was probably removed for
being non-trade-friendly.

Description / text file:
-------------------------
Chip Jones Solo Acoustic
Suburban Tap
Marietta, Georgia
8/17/2021 

Source: Schoeps CCM4V'S>Lunatec V2>Sound Devices 722 (24/44.1)
FOB/DFC/KFC/ZFC/AARP Stage Lip, 6' High
DSP: Sound Devices 722>Sound Forge 10.0>CD Wave>flac(16)
ID3 Tagged In Foobar 2000
Recorded By: Z-Man
Seeded By: Z-Man
A Team Dirty South Recording

Disc I

01 Visions
02 Greeting By Chip
03 Paradise
04 Crazy Fingers
05 On The Ground 

chip2021-08-17d01t01.flac:faaa815d08694dc940639d0603ef62a7
chip2021-08-17d01t02.flac:d68dccedae4227cb9e2b507674231d1a
chip2021-08-17d01t03.flac:55724e4e27eb259bed85f32cfc435ce3
chip2021-08-17d01t04.flac:a4f4977bea745f1935f31d79af87be7e
chip2021-08-17d01t05.flac:c69cd4bc6848ce08fad668d29fb3e100

length     expanded size    cdr  WAVE problems  fmt   ratio  filename
     9:58.18      105529580 B   ---   --   ---xx   flac  0.4979  chip2021-08-17d01t01.flac
     0:52.54        9299852 B   ---   --   ---xx   flac  0.4035  chip2021-08-17d01t02.flac
     4:16.59       45297212 B   ---   --   ---xx   flac  0.4726  chip2021-08-17d01t03.flac
     5:34.19       58962332 B   ---   --   ---xx   flac  0.5156  chip2021-08-17d01t04.flac
     4:13.33       44706860 B   ---   --   ---xx   flac  0.4938  chip2021-08-17d01t05.flac
    24:55.33      263795836 B                            0.4935  (5 files)






More information about the bittorrent mailing list