[bittorrent] Down For The Count Orchestra We're Down For The Count Celebrating The Life Of Count M'Butu Music On Main Street Lilburn, Georgia 8/15/2021 (Z-Man Schoeps CCM4V'S FOB)

Automated Mailer noreply-bt.e at etree.org
Tue Aug 17 15:40:29 UTC 2021


Band:           Jeff Sipe
Torrent Name:   Down For The Count Orchestra We're Down For The Count Celebrating The Life Of Count M'Butu Music On Main Street Lilburn, Georgia 8/15/2021  (Z-Man Schoeps CCM4V'S FOB)
Uploaded by:    zmanatl
DB Link:        
Details:        http://bt.etree.org/details.php?id=613501

Contact the seeder at http://db.etree.org/zmanatl

If the link to this show does not work, it was probably removed for
being non-trade-friendly.

Description / text file:
-------------------------
Down For The Count Orchestra
We're Down For The Count
Celebrating The Life Of Count M'Butu
Music On Main Street
Lilburn, Georgia
8/15/2021 

Source: Schoeps CCM4V'S>Lunatec V2>Sound Devices 722 (24/44.1)
FOB/DFC/KFC/ZFC/AARP 30' From Stage, 6 1/2' High
DSP: Sound Devices 722>Sound Forge 10.0>CD Wave>flac(16)
ID3 Tagged In Foobar 2000
Recorded By: Z-Man
Seeded By: Z-Man
A Team Dirty South Recording

Disc I

01 Banter On Drums
02 Chant >
03 Jam >
04 Jam
05 New Orleans Jam
06 *#Look-A-Py Py Jam
07 *#There Was A Time
08 *#Hoochie Coochie Man
09 *#?
10 *#Compared To What
11 *#Goodnight Irene
12 Outro

* With Tyler Neal On Guitar And Vocals
# With Dante Harmon On Slide Steel Guitar

Core Band:

Jeff Sipe - Drums
Guarav Malhotra - Percussion
Nick Johnson - Guitar And Vocals
Grant Green Jr. - Guitar And Vocals
Neil Fountain - Bass
Richie Jones - Percussion
Daniel Wytannus - Trombone
Joey Sommerville - Trumpet And Vocals
? - Saxophone
JW Powell - Keyboards
Mark Chester - Percussion And Vocals 
Jim Roberts - Percussion
? - Percussion - Talking Drum
? - Percussion

down2021-08-15d01t01.flac:914d895808b3e29c51f7685826792c52
down2021-08-15d01t02.flac:d16a02cc3f5d59a76b4c350e819d3127
down2021-08-15d01t03.flac:33d23919f072acbef98637ac4ead8f13
down2021-08-15d01t04.flac:919b3e10a403944ebf14106c1aa3355c
down2021-08-15d01t05.flac:0c8942e2dc423005db371bb9f763d0e4
down2021-08-15d01t06.flac:b0af4141c292699bb9b57ac1fb906fa1
down2021-08-15d01t07.flac:7e9fd423bb614e692fbafbc17ccc9db1
down2021-08-15d01t08.flac:fbf6929ee7d240ee6b2b1c6c59d9855b
down2021-08-15d01t09.flac:adc06bc3a16354b98cc1e5dcac06c45a
down2021-08-15d01t10.flac:8a068bfe5479fb29fd41b46e153894d6
down2021-08-15d01t11.flac:6f0181609537ef48e4ed47f40d437e0c
down2021-08-15d01t12.flac:56ace98f1cea2846cc5db05101deee0e

  length     expanded size    cdr  WAVE problems  fmt   ratio  filename
     1:26.25       15229244 B   ---   --   ---xx   flac  0.3910  down2021-08-15d01t01.flac
     3:53.30       41171804 B   ---   --   ---xx   flac  0.4524  down2021-08-15d01t02.flac
     6:01.29       63748652 B   ---   --   ---xx   flac  0.4592  down2021-08-15d01t03.flac
     8:14.58       87278060 B   ---   --   ---xx   flac  0.4818  down2021-08-15d01t04.flac
    10:54.00      115365644 B   ---   --   ---xx   flac  0.4723  down2021-08-15d01t05.flac
    11:52.08      125615660 B   ---   --   ---xx   flac  0.4750  down2021-08-15d01t06.flac
     8:04.05       85389404 B   ---   --   ---xx   flac  0.4789  down2021-08-15d01t07.flac
     6:53.46       72961436 B   ---   --   ---xx   flac  0.4621  down2021-08-15d01t08.flac
     9:49.40      103993724 B   ---   --   ---xx   flac  0.5690  down2021-08-15d01t09.flac
     5:07.02       54159548 B   ---   --   ---xx   flac  0.5785  down2021-08-15d01t10.flac
     6:11.15       65479724 B   ---   --   ---xx   flac  0.4781  down2021-08-15d01t11.flac
     1:20.50       14229644 B   ---   --   ---xx   flac  0.3928  down2021-08-15d01t12.flac
    79:48.08      844622544 B                            0.4879  (12 files)







More information about the bittorrent mailing list