[bittorrent] Escape Vehicle Ryan Marcus's House Sandy Springs, Georgia 8/11/2021 (Z-Man Schoeps CCM4V'S FOB)

Automated Mailer noreply-bt.e at etree.org
Sun Aug 15 05:45:44 UTC 2021


Band:           Other
Torrent Name:   Escape Vehicle  Ryan Marcus's House Sandy Springs, Georgia 8/11/2021 (Z-Man Schoeps CCM4V'S FOB)
Uploaded by:    zmanatl
DB Link:        
Details:        http://bt.etree.org/details.php?id=613483

Contact the seeder at http://db.etree.org/zmanatl

If the link to this show does not work, it was probably removed for
being non-trade-friendly.

Description / text file:
-------------------------
Escape Vehicle 
Ryan Marcus's House
Sandy Springs, Georgia
8/11/2021

Source: Schoeps CCM4V'S>Lunatec V2>Sound Devices 722 (24/44.1)
FOB/DFC/KFC/ZFC/AARP 8' From Stage, 6 1/2' High
DSP: Sound Devices 722>Sound Forge 10.0>CD Wave>flac(16)
ID3 Tagged In Foobar 2000
Recorded By: Z-Man
Seeded By: Z-Man
A Team Dirty South Recording

Disc I

01 Hell In A Bucket 
02 The Golden Road (To Unlimited Devotion)
03 Love In The Afternoon
04 Crazy Fingers
05 Drum Solo >
06 The Other One > 
07 Unbroken Chain Jam >
08 The Other One

Scott "Loaf" Lofranco - Guitar
Kevin Mppre - Guitar And Vocals
Malcom Fields - Bass And Vocals
Grant Duffy - Keyboards And Vocals
Ryan Marcus - Drums 

escape2021-08-11d01t01.flac:17f5d4fabc01bc553907aa1fc8e67045
escape2021-08-11d01t02.flac:0668e0efefa2c3ce7358b1a10549ded8
escape2021-08-11d01t03.flac:86ecfd0ed4435880bb6a47ae64b59be9
escape2021-08-11d01t04.flac:09dfdad426ff9654dedf72ae2e176f5f
escape2021-08-11d01t05.flac:c47dc98f22dfe295861b8d79c18083ce
escape2021-08-11d01t06.flac:f37291fa9dd34cb78122e5cb3a523e0a
escape2021-08-11d01t07.flac:8828d36d31d3bfbb0839d530c8e2b298
escape2021-08-11d01t08.flac:ce122fadd806d64b21f874e61c2df8d1

length     expanded size    cdr  WAVE problems  fmt   ratio  filename
     6:28.02       68447948 B   ---   --   ---xx   flac  0.6022  escape2021-08-11d01t01.flac
     4:07.10       43594364 B   ---   --   ---xx   flac  0.5957  escape2021-08-11d01t02.flac
     6:32.28       69214700 B   ---   --   ---xx   flac  0.4774  escape2021-08-11d01t03.flac
     7:20.27       77679548 B   ---   --   ---xx   flac  0.5509  escape2021-08-11d01t04.flac
     0:26.72        4755788 B   ---   --   ---xx   flac  0.5104  escape2021-08-11d01t05.flac
     2:23.28       25291100 B   ---   --   ---xx   flac  0.6116  escape2021-08-11d01t06.flac
     3:33.07       37589708 B   ---   --   ---xx   flac  0.6083  escape2021-08-11d01t07.flac
     4:57.36       52475516 B   ---   --   ---xx   flac  0.5555  escape2021-08-11d01t08.flac
    35:48.60      379048672 B                            0.5618  (8 files)







More information about the bittorrent mailing list