[bittorrent] GD 6/25/78 [152977] - SBD - Bear - Autzen Stadium, Eugene, OR 1648 (GEMS) ** New to Circulation **

Automated Mailer noreply-bt.e at etree.org
Sat Aug 14 19:41:07 UTC 2021


Band:           Grateful Dead
Torrent Name:   GD 6/25/78 [152977] - SBD - Bear - Autzen Stadium, Eugene, OR 1648 (GEMS) ** New to Circulation **
Uploaded by:    grv68
DB Link:        
Details:        http://bt.etree.org/details.php?id=613475

Contact the seeder at http://db.etree.org/grv68

If the link to this show does not work, it was probably removed for
being non-trade-friendly.

Description / text file:
-------------------------
Grateful Dead
Autzen Stadium
Eugene, OR
Sunday, June 25, 1978

Recording Info:  Bear's Master Cassette (Set 1) + Bear's Master Reel > Cassette (Set 2)

Transfer Info:  Cassette (Nakamichi CR-7A) > Tascam DA-3000 > Samplitude Pro X5 > Flac24 > RX8 > Flac16

Recorded by Augustus Owsley Stanley III (aka Bear)
Transferred and Mastered by Jim Blackwood
Speed Correction by Jason Chastain

Originally aired on 91.3 FM KXCI Tucson on Dead Air, hosted by Jim Blackwood and Jamie Waddell on June 27, 2021
https://spinitron.com/KXCI/pl/13557182/Dead-Air
Shared to www.shnflac.net in August, 2021

FLAC Level 8 16 bit 48 kHz with MBIT+ dither

Notes:
- Patched where needed (at very end of Eyes and a small spot in drums) using Vault Master Reel source

Set I
01 Tuning+Banter
02 Promised Land
03 They Love Each Other
04 Me And My Uncle >
05 Big River
06 Candyman
07 Passenger
08 Peggy-O
09 Minglewood Blues

Set II
10 Tuning
11 Samson And Delilah
12 Friend Of The Devil
13 Estimated Prophet >
14 Eyes Of The World >
15 Drums >
16 Space >
17 Not Fade Away >
18 Goin Down The Road Feelin Bad >
19 Around And Around

Encore
20 US Blues

**gems**

    length     expanded size    cdr  WAVE problems  fmt   ratio  filename
     6:15.187      72035884 B   cxx   --   ---xx   flac  0.5230  01 Tuning+Banter.flac
     4:29.093      51665892 B   cxx   --   ---xx   flac  0.5934  02 Promised Land.flac
     6:45.547      77865076 B   cxx   --   ---xx   flac  0.5653  03 They Love Each Other.flac
     3:14.253      37296684 B   cxx   --   ---xx   flac  0.5771  04 Me And My Uncle.flac
     6:19.587      72880684 B   cxx   --   ---xx   flac  0.5723  05 Big River.flac
     8:51.640     102074916 B   cxx   --   ---xx   flac  0.5518  06 Candyman.flac
     7:02.220      81066244 B   cxx   --   ---xx   flac  0.5708  07 Passenger.flac
     9:19.434     107411284 B   cxx   --   ---xx   flac  0.5497  08 Peggy-O.flac
     5:56.667      68480044 B   cxx   --   ---xx   flac  0.5824  09 Minglewood Blues.flac
     1:13.600      14131244 B   cxx   --   ---xx   flac  0.3950  10 Tuning.flac
     8:50.013     101762612 B   cxx   --   ---xx   flac  0.5862  11 Samson And Delilah.flac
    11:30.227     132523572 B   cxx   --   ---xx   flac  0.5670  12 Friend Of The Devil.flac
    13:40.707     157575724 B   cxx   --   ---xx   flac  0.5975  13 Estimated Prophet.flac
    11:40.467     134489644 B   cxx   --   ---xx   flac  0.5991  14 Eyes Of The World.flac
    11:25.905     131693804 B   cxx   --   ---xx   flac  0.5766  15 Drums.flac
     5:19.122      61271372 B   cxx   --   ---xx   flac  0.5884  16 Space.flac
     9:43.840     112097348 B   cxx   --   ---xx   flac  0.6002  17 Not Fade Away.flac
     8:50.827     101918772 B   cxx   --   ---xx   flac  0.6024  18 Goin Down The Road Feelin Bad.flac
     8:57.520     103203884 B   cxx   --   ---xx   flac  0.6035  19 Around And Around.flac
     5:59.040      68935724 B   cxx   --   ---xx   flac  0.5971  20 US Blues.flac
   155:24.893    1790380408 B                            0.5788  (20 files)



More information about the bittorrent mailing list