[bittorrent] GD 6/25/78 [152976] - SBD - Bear - Autzen Stadium, Eugene, OR 2496 (GEMS) ** New to Circulation **

Automated Mailer noreply-bt.e at etree.org
Sat Aug 14 19:39:49 UTC 2021


Band:           Grateful Dead
Torrent Name:   GD 6/25/78 [152976] - SBD - Bear - Autzen Stadium, Eugene, OR 2496 (GEMS) ** New to Circulation **
Uploaded by:    grv68
DB Link:        
Details:        http://bt.etree.org/details.php?id=613474

Contact the seeder at http://db.etree.org/grv68

If the link to this show does not work, it was probably removed for
being non-trade-friendly.

Description / text file:
-------------------------
Grateful Dead
Autzen Stadium
Eugene, OR
Sunday, June 25, 1978

Recording Info:  Bear's Master Cassette (Set 1) + Bear's Master Reel > Cassette (Set 2)

Transfer Info:  Cassette (Nakamichi CR-7A) > Tascam DA-3000 > Samplitude Pro X5 > Flac24

Recorded by Augustus Owsley Stanley III (aka Bear)
Transferred and Mastered by Jim Blackwood
Speed Correction by Jason Chastain

Originally aired on 91.3 FM KXCI Tucson on Dead Air, hosted by Jim Blackwood and Jamie Waddell on June 27, 2021
https://spinitron.com/KXCI/pl/13557182/Dead-Air
Shared to www.shnflac.net in August, 2021

FLAC Level 8 24 bit 96 kHz

Notes:
- Patched where needed (at very end of Eyes and a small spot in drums) using Vault Master Reel source

Set I
01 Tuning+Banter
02 Promised Land
03 They Love Each Other
04 Me And My Uncle >
05 Big River
06 Candyman
07 Passenger
08 Peggy-O
09 Minglewood Blues

Set II
10 Tuning
11 Samson And Delilah
12 Friend Of The Devil
13 Estimated Prophet >
14 Eyes Of The World >
15 Drums >
16 Space >
17 Not Fade Away >
18 Goin Down The Road Feelin Bad >
19 Around And Around

Encore
20 US Blues

**gems**

    length     expanded size    cdr  WAVE problems  fmt   ratio  filename
     6:15.187     216107564 B   cxx   --   ---xx   flac  0.6428  01 Tuning+Banter.flac
     4:29.093     154997582 B   cxx   --   ---xx   flac  0.6735  02 Promised Land.flac
     6:45.547     233595146 B   cxx   --   ---xx   flac  0.6601  03 They Love Each Other.flac
     3:14.253     111889964 B   cxx   --   ---xx   flac  0.6688  04 Me And My Uncle.flac
     6:19.587     218641964 B   cxx   --   ---xx   flac  0.6634  05 Big River.flac
     8:51.640     306224684 B   cxx   --   ---xx   flac  0.6546  06 Candyman.flac
     7:02.220     243198644 B   cxx   --   ---xx   flac  0.6622  07 Passenger.flac
     9:19.434     322233764 B   cxx   --   ---xx   flac  0.6524  08 Peggy-O.flac
     5:56.667     205440044 B   cxx   --   ---xx   flac  0.6676  09 Minglewood Blues.flac
     1:13.600      42393644 B   cxx   --   ---xx   flac  0.5527  10 Tuning.flac
     8:50.013     305287724 B   cxx   --   ---xx   flac  0.6569  11 Samson And Delilah.flac
    11:30.227     397570604 B   cxx   --   ---xx   flac  0.6465  12 Friend Of The Devil.flac
    13:40.707     472727084 B   cxx   --   ---xx   flac  0.6607  13 Estimated Prophet.flac
    11:40.467     403468844 B   cxx   --   ---xx   flac  0.6551  14 Eyes Of The World.flac
    11:25.905     395081324 B   cxx   --   ---xx   flac  0.6404  15 Drums.flac
     5:19.121     183814022 B   cxx   --   ---xx   flac  0.6607  16 Space.flac
     9:43.840     336291986 B   cxx   --   ---xx   flac  0.6619  17 Not Fade Away.flac
     8:50.827     305756204 B   cxx   --   ---xx   flac  0.6625  18 Goin Down The Road Feelin Bad.flac
     8:57.520     309611564 B   cxx   --   ---xx   flac  0.6630  19 Around And Around.flac
     5:59.040     206807084 B   cxx   --   ---xx   flac  0.6620  20 US Blues.flac
   155:24.893    5371139440 B                            0.6564  (20 files)



More information about the bittorrent mailing list