[bittorrent] gd1982-08-04.153018.beyer.tompkins.flac2448

Automated Mailer noreply-bt.e at etree.org
Sat Aug 14 18:42:07 UTC 2021


Band:           Grateful Dead
Torrent Name:   gd1982-08-04.153018.beyer.tompkins.flac2448
Uploaded by:    nfagdtrfb
DB Link:        
Details:        http://bt.etree.org/details.php?id=613473

Contact the seeder at http://db.etree.org/nfagdtrfb

If the link to this show does not work, it was probably removed for
being non-trade-friendly.

Description / text file:
-------------------------
GRATEFUL DEAD
Kiel Auditorium
Saint Louis MO
08-04-1982

s1t01 crowd
s1t02 Feel Like a Stranger
s1t03 Friend of the Devil >
s1t04 C.C. Rider
s1t05 Brown Eyed Women
s1t06 Mama Tried >
s1t07 Mexicali Blues
s1t08 Row Jimmy >
s1t09 Looks Like Rain
s1t10 Stagger Lee
s1t11 Promised Land

s2t01 Never Trust a Woman
s2t02 Estimated Prophet >
s2t03 Terrapin >
s2t04 Jam >
s2t05 Drums/ (tape flip)
s2t06 Space >
s2t07 Not Fade Away >
s2t08 Black Peter >
s2t09 Around & Around >
s2t10 Good Lovin'
s2t11 Encore: U.S. Blues

Source: FOB Beyers mics > Sony TC-D5M > TDK MA-90's. Concert 
recording by Rip Tompkins, & with thanks to Richie Stankiewicz!

Transfer: MAC > Nakamichi CR-5A (Dolby-B in) > Edirol FA-66 > 
Wavelab 2448 > CD-Wave (24bit output) > TLH > FLAC 2448 tagged. 
Transferred by Andrew F. 08/2021

Note: Brief mic-cable drop-outs in Stranger and Mama/Mexicali, 
cross-faded to mono for those passages. Patches from ID-138621 
covers first 19 seconds of NTAW, and first 30 seconds of Space.

    length     expanded size    cdr  WAVE problems  fmt   ratio  filename
     1:05.640      18904364 B   cxx   --   ---xx   flac  0.6869  gd1982-08-04s1t01.flac
     8:18.160     143470124 B   cxx   --   ---xx   flac  0.7665  gd1982-08-04s1t02.flac
     9:52.600     170668844 B   cxx   --   ---xx   flac  0.7600  gd1982-08-04s1t03.flac
     7:40.453     132610604 B   cxx   --   ---xx   flac  0.7624  gd1982-08-04s1t04.flac
     5:35.600      96652844 B   cxx   --   ---xx   flac  0.7684  gd1982-08-04s1t05.flac
     2:56.453      50818604 B   cxx   --   ---xx   flac  0.7485  gd1982-08-04s1t06.flac
     4:49.573      83397164 B   cxx   --   ---xx   flac  0.7693  gd1982-08-04s1t07.flac
    10:18.907     178245164 B   cxx   --   ---xx   flac  0.7579  gd1982-08-04s1t08.flac
     8:38.253     149257004 B   cxx   --   ---xx   flac  0.7518  gd1982-08-04s1t09.flac
     5:53.653     101852204 B   cxx   --   ---xx   flac  0.7634  gd1982-08-04s1t10.flac
     4:33.988      78908510 B   cxx   --   ---xx   flac  0.7851  gd1982-08-04s1t11.flac
     7:03.520     121973804 B   cxx   --   ---xx   flac  0.7355  gd1982-08-04s2t01.flac
    11:44.720     202959404 B   cxx   --   ---xx   flac  0.7429  gd1982-08-04s2t02.flac
    11:54.107     205662764 B   cxx   --   ---xx   flac  0.7408  gd1982-08-04s2t03.flac
     6:29.920     112297004 B   cxx   --   ---xx   flac  0.7487  gd1982-08-04s2t04.flac
     7:22.840     127537964 B   cxx   --   ---xx   flac  0.7240  gd1982-08-04s2t05.flac
     7:13.960     124980524 B   cxx   --   ---xx   flac  0.6856  gd1982-08-04s2t06.flac
     7:35.707     131243564 B   cxx   --   ---xx   flac  0.7371  gd1982-08-04s2t07.flac
     8:11.853     141653804 B   cxx   --   ---xx   flac  0.7162  gd1982-08-04s2t08.flac
     3:53.667      67296044 B   cxx   --   ---xx   flac  0.7456  gd1982-08-04s2t09.flac
     7:58.800     137894444 B   cxx   --   ---xx   flac  0.7576  gd1982-08-04s2t10.flac
     5:25.246      93670964 B   cxx   --   ---xx   flac  0.7521  gd1982-08-04s2t11.flac
   154:37.621    2671955714 B                            0.7468  (22 files)

No errors occured.




More information about the bittorrent mailing list