[bittorrent] Barry Richman Blues Jam The Rusty Barrel Marietta, Georgia 8/12/2021 (Z-Man Schoeps CCM4V'S FOB)

Automated Mailer noreply-bt.e at etree.org
Fri Aug 13 03:16:15 UTC 2021


Band:           Other
Torrent Name:   Barry Richman Blues Jam  The Rusty Barrel Marietta, Georgia 8/12/2021 (Z-Man Schoeps CCM4V'S FOB)
Uploaded by:    zmanatl
DB Link:        
Details:        http://bt.etree.org/details.php?id=613463

Contact the seeder at http://db.etree.org/zmanatl

If the link to this show does not work, it was probably removed for
being non-trade-friendly.

Description / text file:
-------------------------
Barry Richman Blues Jam 
The Rusty Barrel
Marietta, Georgia
8/12/2021

Source: Schoeps CCM4V'S>Lunatec V2>Sound Devices 722 (24/44.1)
FOB/DFC/KFC/ZFC/AARP 6' From Stage, 6 1/2' High
DSP: Sound Devices 722>Sound Forge 10.0>CD Wave>flac(16)
ID3 Tagged In Foobar 2000
Recorded By: Z-Man
Seeded By: Z-Man
A Team Dirty South Recording

Disc I

01 Greeting By Dana 
02 Mad World
03 You'll Be Sorry Someday
04 Thm Changes
05 Stormy

Barry Richman - Guitar
Dana McCarthy - Bass And Vocals
Charlie Korch - Drums And Vocals

barry2021-08-1201.flac:8c07db5347c9e970116eb7843414e691
barry2021-08-1202.flac:361a5328d323b27af52b75e5c28a7d70
barry2021-08-1203.flac:76da9662dbcb6ccecb17b4453160ee1d
barry2021-08-1204.flac:3899b155ad46e7d56b8fd96cab1a6d9b
barry2021-08-1205.flac:6fcdb43b2a506a7b7a510c3af2afb377

length     expanded size    cdr  WAVE problems  fmt   ratio  filename
     0:39.67        7037228 B   ---   --   ---xx   flac  0.3333  barry2021-08-1201.flac
     6:34.30       69572204 B   ---   --   ---xx   flac  0.5282  barry2021-08-1202.flac
     8:22.46       88661036 B   ---   --   ---xx   flac  0.4977  barry2021-08-1203.flac
     5:25.05       57341804 B   ---   --   ---xx   flac  0.5682  barry2021-08-1204.flac
     6:37.04       70040252 B   ---   --   ---xx   flac  0.5712  barry2021-08-1205.flac
    27:39.02      292652524 B                            0.5324  (5 files)




More information about the bittorrent mailing list