[bittorrent] Drew Matulich's Bluegrass Jam Jack Of The Wood Asheville, North Carolina 8/5/2021 (Z-Man Schoeps CCM4V'S FOB))

Automated Mailer noreply-bt.e at etree.org
Thu Aug 12 15:36:47 UTC 2021


Band:           Other
Torrent Name:   Drew Matulich's Bluegrass Jam Jack Of The Wood Asheville, North Carolina 8/5/2021 (Z-Man Schoeps CCM4V'S FOB))
Uploaded by:    zmanatl
DB Link:        
Details:        http://bt.etree.org/details.php?id=613456

Contact the seeder at http://db.etree.org/zmanatl

If the link to this show does not work, it was probably removed for
being non-trade-friendly.

Description / text file:
-------------------------
Drew Matulich's Bluegrass Jam
Jack Of The Wood
Asheville, North Carolina
8/5/2021

Source: Schoeps CCM4V'S>Lunatec V2>Sound Devices 722 (24/44.1)
FOB/DFC/KFC/ZFC/AARP 6' From Stage, 6 1/2' High
DSP: Sound Devices 722>Sound Forge 10.0>CD Wave>flac(16)
ID3 Tagged In Foobar 2000
Recorded By: Z-Man
Seeded By: Z-Man
A Team Dirty South Recording

Disc I 

01 Good Ol' Mountain Dew
02 Your Love Is Like A Flower >
03 Instrumental >
04 Instrumental
05 9# Hammer
06 *Drivin' Nails In My Coffin
07 Dark Hollow
08 #BanJo Tune
09 #I Wonder Where You Are Tonight
10 #Bringin' In The Georgia Mail 
11 Instrumental

* With Savannah Smith On Vocals
# With Mike Testagrossa On Dobro

Drew Matulich -  Guitar And Vocals
James Schindler - Fiddle
Jeremy Rilko - BanJo
Sean Newman - Bass And Vocals 

drew2021-08-05d01t01.flac:20b03e9a2c74a79598c650ee65da8250
drew2021-08-05d01t02.flac:76f0581643c742fb8c14e934b88956b1
drew2021-08-05d01t03.flac:f307980edd13139d128f32b9d649b373
drew2021-08-05d01t04.flac:52499954c11b9649e66302957716c9c1
drew2021-08-05d01t05.flac:8062547b6ba88086b08649910e841566
drew2021-08-05d01t06.flac:13f13e84653f5ab6b97a65e0997c9ca3
drew2021-08-05d01t07.flac:d2d2e175c4f87e8bd0737737be3e76ce
drew2021-08-05d01t08.flac:0e4e6c778a845ea4fa9d762f1cbd4d18
drew2021-08-05d01t09.flac:a8c495e9a16d8e3057465d4b3cd70e41
drew2021-08-05d01t10.flac:177b186bb01969ce076543405f4399cb
drew2021-08-05d01t11.flac:1d4b756511bf82770b0f488b4a12b46d

length     expanded size    cdr  WAVE problems  fmt   ratio  filename
     3:02.36       32189516 B   ---   --   ---xx   flac  0.4270  drew2021-08-05d01t01.flac
     3:41.16       39022076 B   ---   --   ---xx   flac  0.4327  drew2021-08-05d01t02.flac
     3:19.07       35120108 B   ---   --   ---xx   flac  0.4521  drew2021-08-05d01t03.flac
     3:26.02       36343148 B   ---   --   ---xx   flac  0.4476  drew2021-08-05d01t04.flac
     5:56.33       62876060 B   ---   --   ---xx   flac  0.4371  drew2021-08-05d01t05.flac
     4:09.46       44031836 B   ---   --   ---xx   flac  0.4673  drew2021-08-05d01t06.flac
     3:59.53       42284300 B   ---   --   ---xx   flac  0.4629  drew2021-08-05d01t07.flac
     4:12.01       44455196 B   ---   --   ---xx   flac  0.4569  drew2021-08-05d01t08.flac
     3:53.47       41211788 B   ---   --   ---xx   flac  0.4603  drew2021-08-05d01t09.flac
     4:00.27       42399548 B   ---   --   ---xx   flac  0.4740  drew2021-08-05d01t10.flac
     5:29.08       58054460 B   ---   --   ---xx   flac  0.4455  drew2021-08-05d01t11.flac
    45:09.51      477988036 B                            0.4512  (11 files)







More information about the bittorrent mailing list