[bittorrent] Chip Jones Solo Acoustic Suburban Tap Marietta, Georgia 8/10/2021 (Z-Man Schoeps CCM4V'S FOB)

Automated Mailer noreply-bt.e at etree.org
Thu Aug 12 04:11:35 UTC 2021


Band:           Other
Torrent Name:   Chip Jones Solo Acoustic Suburban Tap Marietta, Georgia 8/10/2021 (Z-Man Schoeps CCM4V'S FOB)
Uploaded by:    zmanatl
DB Link:        
Details:        http://bt.etree.org/details.php?id=613447

Contact the seeder at http://db.etree.org/zmanatl

If the link to this show does not work, it was probably removed for
being non-trade-friendly.

Description / text file:
-------------------------
Chip Jones Solo Acoustic
Suburban Tap
Marietta, Georgia
8/10/2021

Source: Schoeps CCM4V'S>Lunatec V2>Sound Devices 722 (24/44.1)
FOB/DFC/KFC/ZFC/AARP 8' From Stage, 6 1/2' High
DSP: Sound Devices 722>Sound Forge 10.0>CD Wave>flac(16)
ID3 Tagged In Foobar 2000
Recorded By: Z-Man
Seeded By: Z-Man
A Team Dirty South Recording

Disc I 

01 Sisters
02 Right Time
03 Makes Sense To Me 
04 On The Ground
05 Sidney
06 Night Draws Near
07 Cassidy

chip2021-08-10d01t01.flac:d85e437f2f40297e4ad9c73f2c2f7c65
chip2021-08-10d01t02.flac:53e99849b8bdac4d086db0277f3fdc31
chip2021-08-10d01t03.flac:4a68ee4d53b7b796ca42aff89de62c4d
chip2021-08-10d01t04.flac:df6d513c3af2baf626d4d2b3a6e32ed2
chip2021-08-10d01t05.flac:2c0f71d6daa1625a33435b6131e8cb1c
chip2021-08-10d01t06.flac:d7c25e35e2bc248584b0584fe01e9674
chip2021-08-10d01t07.flac:d026670543c68e56425b7825e36c884c

 length     expanded size    cdr  WAVE problems  fmt   ratio  filename
     3:32.52       37519148 B   ---   --   ---xx   flac  0.4117  chip2021-08-10d01t01.flac
     5:45.02       60862748 B   ---   --   ---xx   flac  0.4721  chip2021-08-10d01t02.flac
     4:07.28       43636700 B   ---   --   ---xx   flac  0.5152  chip2021-08-10d01t03.flac
     4:35.43       48611180 B   ---   --   ---xx   flac  0.4763  chip2021-08-10d01t04.flac
     4:28.16       47312876 B   ---   --   ---xx   flac  0.5338  chip2021-08-10d01t05.flac
     6:28.27       68506748 B   ---   --   ---xx   flac  0.5134  chip2021-08-10d01t06.flac
     8:46.15       92821724 B   ---   --   ---xx   flac  0.5361  chip2021-08-10d01t07.flac
    37:43.33      399271124 B                            0.5009  (7 files)





More information about the bittorrent mailing list