[bittorrent] Widespread Panic Asheville Civic Center Asheville, North Carolina 8/8/2021 (Z-Man Schoeps CCM4V'S FOB)

Automated Mailer noreply-bt.e at etree.org
Mon Aug 9 06:23:48 UTC 2021


Band:           Widespread Panic
Torrent Name:   Widespread Panic Asheville Civic Center Asheville, North Carolina 8/8/2021 (Z-Man Schoeps CCM4V'S FOB) 
Uploaded by:    zmanatl
DB Link:        
Details:        http://bt.etree.org/details.php?id=613424

Contact the seeder at http://db.etree.org/zmanatl

If the link to this show does not work, it was probably removed for
being non-trade-friendly.

Description / text file:
-------------------------
Widespread Panic
Asheville Civic Center
Asheville, North Carolina
8/8/2021 

Source: Schoeps CCM4V'S>Lunatec V2>Sound Devices 722 (24/44.1)
FOB/DFC/KFC/ZFC/AARP 45' From Stage, 6 1/2' High
DSP: Sound Devices 722>Sound Forge 10.0>CD Wave>flac(16)
ID3 Tagged In Foobar 2000
Recorded By: Z-Man
Seeded By: Z-Man
A Team Dirty South Recording

Disc I 1st Set

01 Greeting By JB
02 Coconut >
03 Greta >
04 City Of Dreams 
05 Climb To Safety 
06 I'm Not Alone 
07 Sundown Betty >
08 Junior 
09 That Thang >
10 No Sugar Tonight >
11 New Mother Nature
 
Disc II 2nd Set 

01 From The Cradle 
02 Dear Mr. Fantasy >
03 Rock 
04 Saint Ex >
05 Surprise Valley >
06 Electric Funeral Jam >
07 Maggot Brain >
08 I'm So Glad >
09 Surprise Valley >
10 Postcard

Disc III Encore

01 This Friendly World 
02 Down 
03 You Can't Always Get What You Want

John "JB" Bell - Guitar And Vocals
Jimmy Herring - Guitar
Dave Schools - Bass And Vocals
John "JoJo" Hermann - Keyboards And Vocals
Domingo "Sunny" Ortiz - Percussion
Duane Trucks - Drums

wsp2021-08-08d01t01.flac:43ec6793a6b066d64304737686608aca
wsp2021-08-08d01t02.flac:03d3b1e730f99592371f157a77b45936
wsp2021-08-08d01t03.flac:4229a10c7bff4c51498e31a6a4e216b0
wsp2021-08-08d01t04.flac:024d2b877d8ad025f7d55357f972fb73
wsp2021-08-08d01t05.flac:5014c66f9f2dd528ad5c56792fd7a427
wsp2021-08-08d01t06.flac:2f74b72f6c1b4aa981998b567f21f5bf
wsp2021-08-08d01t07.flac:606c4b88d6ac353e5279df6279dcb196
wsp2021-08-08d01t08.flac:6dfb5023332a4930263746bda12374e5
wsp2021-08-08d01t09.flac:9c4aeb324c1d95772bb8aa8b449817f3
wsp2021-08-08d01t10.flac:25e96485c68a31d7677eb334389ff65a
wsp2021-08-08d01t11.flac:df0fda11116e7f49f2d58df80fa6b2a1
wsp2021-08-08d02t01.flac:6f3e6bd0ac7192b63d5240bbf4f9af0f
wsp2021-08-08d02t02.flac:32b01a73ee5f76a48b311c157772fce3
wsp2021-08-08d02t03.flac:2542ff6c5534bf066f6261bcf87f2122
wsp2021-08-08d02t04.flac:ce4497f7b7afd07350379e9e9a8ebb47
wsp2021-08-08d02t05.flac:ce77d4fd04da4786651853701cc8fe4b
wsp2021-08-08d02t06.flac:2e23a01df3cbf641583d0432e1995cc0
wsp2021-08-08d02t07.flac:126fbc32e2d5d9ada2dfc3eab6751255
wsp2021-08-08d02t08.flac:f6f1faff64e6702a8f6e69af1b1a9efd
wsp2021-08-08d02t09.flac:aae6844fe9091647dc9131bc0659a8ff
wsp2021-08-08d02t10.flac:51dffebec4616a1a83601c5b3bf60f93
wsp2021-08-08d03t01.flac:e32773a5d657d77afd0fdf2059604189
wsp2021-08-08d03t02.flac:b70bd28270f9fa9db6ab444867c9c9bf
wsp2021-08-08d03t03.flac:0537c599669d01873783b042279de004

length     expanded size    cdr  WAVE problems  fmt   ratio  filename
     0:44.30        7832204 B   ---   --   ---xx   flac  0.4005  wsp2021-08-08d01t01.flac
    10:56.73      115890140 B   ---   --   ---xx   flac  0.5179  wsp2021-08-08d01t02.flac
    10:31.54      111435452 B   ---   --   ---xx   flac  0.5392  wsp2021-08-08d01t03.flac
     6:02.26       63917996 B   ---   --   ---xx   flac  0.4667  wsp2021-08-08d01t04.flac
     7:12.55       76334204 B   ---   --   ---xx   flac  0.5236  wsp2021-08-08d01t05.flac
     6:34.41       69598076 B   ---   --   ---xx   flac  0.4932  wsp2021-08-08d01t06.flac
     8:07.42       86005628 B   ---   --   ---xx   flac  0.5198  wsp2021-08-08d01t07.flac
     7:48.33       82632860 B   ---   --   ---xx   flac  0.5532  wsp2021-08-08d01t08.flac
    11:54.57      126083708 B   ---   --   ---xx   flac  0.4948  wsp2021-08-08d01t09.flac
     3:12.51       33988796 B   ---   --   ---xx   flac  0.5007  wsp2021-08-08d01t10.flac
     4:28.19       47319932 B   ---   --   ---xx   flac  0.5409  wsp2021-08-08d01t11.flac
     5:26.42       57605228 B   ---   --   ---xx   flac  0.4875  wsp2021-08-08d02t01.flac
     9:35.38      101519420 B   ---   --   ---xx   flac  0.5036  wsp2021-08-08d02t02.flac
    10:41.70      113237084 B   ---   --   ---xx   flac  0.4878  wsp2021-08-08d02t03.flac
     9:37.61      101926316 B   ---   --   ---xx   flac  0.5084  wsp2021-08-08d02t04.flac
     7:49.16       82769276 B   ---   --   ---xx   flac  0.5359  wsp2021-08-08d02t05.flac
     5:50.02       61744748 B   ---   --   ---xx   flac  0.4569  wsp2021-08-08d02t06.flac
     7:02.55       74570204 B   ---   --   ---xx   flac  0.4562  wsp2021-08-08d02t07.flac
     7:09.17       75715628 B   ---   --   ---xx   flac  0.5169  wsp2021-08-08d02t08.flac
     3:57.42       41905628 B   ---   --   ---xx   flac  0.5194  wsp2021-08-08d02t09.flac
     4:56.45       52320284 B   ---   --   ---xx   flac  0.5445  wsp2021-08-08d02t10.flac
     3:31.33       37298060 B   ---   --   ---xx   flac  0.4338  wsp2021-08-08d03t01.flac
     5:34.72       59086988 B   ---   --   ---xx   flac  0.5272  wsp2021-08-08d03t02.flac
    10:46.67      114112028 B   ---   --   ---xx   flac  0.5341  wsp2021-08-08d03t03.flac
   169:34.66     1794849888 B                            0.5089  (24 files)




More information about the bittorrent mailing list