[bittorrent] The Z-Man's Jam - Acoustic/Unplugged Albert Amato's House Fairview, North Carolina 8/7/2021 (Z-Man Schoeps CCM4V'S FOB)

Automated Mailer noreply-bt.e at etree.org
Sun Aug 8 17:52:43 UTC 2021


Band:           Other
Torrent Name:   The Z-Man's Jam - Acoustic/Unplugged Albert Amato's House Fairview, North Carolina 8/7/2021  (Z-Man Schoeps CCM4V'S FOB)
Uploaded by:    zmanatl
DB Link:        
Details:        http://bt.etree.org/details.php?id=613419

Contact the seeder at http://db.etree.org/zmanatl

If the link to this show does not work, it was probably removed for
being non-trade-friendly.

Description / text file:
-------------------------
The Z-Man's Jam - Acoustic/Unplugged
Albert Amato's House
Fairview, North Carolina
8/7/2021 

Source: Schoeps CCM4V'S>Lunatec V2>Sound Devices 722 (24/44.1)
FOB/DFC/KFC/ZFC/AARP 6' From Stage, 5' High
DSP: Sound Devices 722>Sound Forge 10.0>CD Wave>flac(16)
ID3 Tagged In Foobar 2000
Recorded By: Z-Man
Seeded By: Z-Man
A Team Dirty South Recording

Disc I 

01 Columbus Stockade Blues
02 Greeting And Introduction By The Z-Man
03 *Workin' On A Building
04 Truckin'
05 ? >
06 Franklin's Tower >
07 ?
08 Shady Grove >
09 420 Polka
10 Where Is Marc Sommers
11 The Monkey And The Engineer
12 Terrapin Station
13 Enter Marc Sommers
14 #When I Paint My Masterpiece
15 Banter
16 #Grandpa Ben
17 #Walk Beside Me
18 #@Deep Elem Blues 
19 #@Sisters And Brothers
20 #Mississippi Half-Step, Uptown Toodeloo

* Complete With Thunder And Lightning
# With Marc Sommers On Guitar And Vocals
@ With Z-Man On Djembe And Vocals

Bobby Miller - Mandolin And Vocals
Ryan Marcus - Djembe And Vocals

thezmans2021-08-07d01t01.flac:454b5304724ad770647ebcf18cb14a2b
thezmans2021-08-07d01t02.flac:2061edd244ca2eebf02270dac2029278
thezmans2021-08-07d01t03.flac:bad39715a756534e01484b9f9d67ace0
thezmans2021-08-07d01t04.flac:c20663389de2291e2638773b736bfde8
thezmans2021-08-07d01t05.flac:4ed21c6e5096d3929d77967a62601a7a
thezmans2021-08-07d01t06.flac:ae21232411b25700d842452fc68d4883
thezmans2021-08-07d01t07.flac:275271071f8c506f09aa8ee210accf9c
thezmans2021-08-07d01t08.flac:f38d15c75948ef9e04dd2605091f44b7
thezmans2021-08-07d01t09.flac:cf3683a6920fcdadd37e25c04bfd9cba
thezmans2021-08-07d01t10.flac:3894d7473f370e61a1f03c1e2c9c0f3d
thezmans2021-08-07d01t11.flac:1c38c1ec7dc884c66920ed71edda6a9a
thezmans2021-08-07d01t12.flac:5d8be13461a537f26d8507dd6deb1060
thezmans2021-08-07d01t13.flac:f8617e01be6ef3287c0922c3d986d9bc
thezmans2021-08-07d01t14.flac:95b947aa9d0f6de291b824fdbde491ca
thezmans2021-08-07d01t15.flac:0add9fe64a225574907fa4698cc4c12b
thezmans2021-08-07d01t16.flac:c10a32d036fbda3772326309f87418be
thezmans2021-08-07d01t17.flac:3a6290f7a0e56f10ade7463435fd1e87
thezmans2021-08-07d01t18.flac:393079763f2f68f2770b88f9d37d5d25
thezmans2021-08-07d01t19.flac:c16788ea18d2a3eba23299f5d024fc03
thezmans2021-08-07d01t20.flac:2bd0cc2ec3c7decd69f0c166c24a89c3

 length     expanded size    cdr  WAVE problems  fmt   ratio  filename
     4:19.43       45788780 B   ---   --   ---xx   flac  0.3798  thezmans2021-08-07d01t01.flac
     1:01.46       10868636 B   ---   --   ---xx   flac  0.4140  thezmans2021-08-07d01t02.flac
     4:03.60       43006364 B   ---   --   ---xx   flac  0.4286  thezmans2021-08-07d01t03.flac
     7:08.07       75515708 B   ---   --   ---xx   flac  0.4301  thezmans2021-08-07d01t04.flac
     3:11.26       33753596 B   ---   --   ---xx   flac  0.4281  thezmans2021-08-07d01t05.flac
     1:59.05       21003404 B   ---   --   ---xx   flac  0.4086  thezmans2021-08-07d01t06.flac
     1:35.31       16830956 B   ---   --   ---xx   flac  0.4024  thezmans2021-08-07d01t07.flac
     3:35.31       37998956 B   ---   --   ---xx   flac  0.4244  thezmans2021-08-07d01t08.flac
     1:44.69       18507932 B   ---   --   ---xx   flac  0.3941  thezmans2021-08-07d01t09.flac
     1:29.36       15784316 B   ---   --   ---xx   flac  0.4157  thezmans2021-08-07d01t10.flac
     2:37.61       27838316 B   ---   --   ---xx   flac  0.4365  thezmans2021-08-07d01t11.flac
     7:53.65       83590124 B   ---   --   ---xx   flac  0.4005  thezmans2021-08-07d01t12.flac
     1:22.42       14563628 B   ---   --   ---xx   flac  0.3960  thezmans2021-08-07d01t13.flac
     5:13.71       55380236 B   ---   --   ---xx   flac  0.4397  thezmans2021-08-07d01t14.flac
     2:29.24       26340092 B   ---   --   ---xx   flac  0.3623  thezmans2021-08-07d01t15.flac
     4:00.46       42444236 B   ---   --   ---xx   flac  0.4525  thezmans2021-08-07d01t16.flac
     4:41.49       49683692 B   ---   --   ---xx   flac  0.4409  thezmans2021-08-07d01t17.flac
     5:19.69       56433932 B   ---   --   ---xx   flac  0.4560  thezmans2021-08-07d01t18.flac
     5:11.43       54961580 B   ---   --   ---xx   flac  0.4274  thezmans2021-08-07d01t19.flac
     8:02.12       85053068 B   ---   --   ---xx   flac  0.4385  thezmans2021-08-07d01t20.flac
    77:02.11      815347552 B                            0.4238  (20 files)




More information about the bittorrent mailing list