[bittorrent] Widespread Panic Asheville Civic Center Asheville, North Carolina 8/7/2021 (Z-Man Schoeps CCM4V'S FOB)

Automated Mailer noreply-bt.e at etree.org
Sun Aug 8 07:01:54 UTC 2021


Band:           Widespread Panic
Torrent Name:   Widespread Panic Asheville Civic Center Asheville, North Carolina 8/7/2021 (Z-Man Schoeps CCM4V'S FOB) 
Uploaded by:    zmanatl
DB Link:        
Details:        http://bt.etree.org/details.php?id=613404

Contact the seeder at http://db.etree.org/zmanatl

If the link to this show does not work, it was probably removed for
being non-trade-friendly.

Description / text file:
-------------------------
Widespread Panic
Asheville Civic Center
Asheville, North Carolina
8/7/2021 

Source: Schoeps CCM4V'S>Lunatec V2>Sound Devices 722 (24/44.1)
FOB/DFC/KFC/ZFC/AARP 45' From Stage, 6 1/2' High
DSP: Sound Devices 722>Sound Forge 10.0>CD Wave>flac(16)
ID3 Tagged In Foobar 2000
Recorded By: Z-Man
Seeded By: Z-Man
A Team Dirty South Recording

Disc I 1st Set

01 Pleas >
02 Diner >
03 All Time Low >
04 Blue Indian
05 Visiting Day 
06 Time Zones >
07 Makes Sense To Me >
08 Jack >
09 Flat Foot Flewzy
 
Disc II 2nd Set 

01 Walk On >
02 Turn On Your Lovelight Jam >
03 Tie Your Shoes >
04 Christmas Katie >
05 Use Me 
06 Conrad The Caterpillar

Disc III 2nd Set Con't  

01 Sleepy Monkey >
02 Blight >
03 Red Hot Mama >
04 Drum Solo >
05 Jam >
06 Red Hot Mama >
07 Protein Drink >
08 Sewing Machine
Encore:
09 Trashy >
10 Weight Of The World >
11 Action Man

John "JB" Bell - Guitar And Vocals
Jimmy Herring - Guitar
Dave Schools - Bass And Vocals
John "JoJo" Hermann - Keyboards And Vocals
Domingo "Sunny" Ortiz - Percussion
Duane Trucks - Drums

wsp2021-08-07d01t01.flac:a05bcbe5f5508fc9348002c39910bc4c
wsp2021-08-07d01t02.flac:28cfdcdb407a211317207711f0e98f27
wsp2021-08-07d01t03.flac:4ad78f2f5d13fbc810f5414258caf2e1
wsp2021-08-07d01t04.flac:d4f358c560b08a0fffc56ca818dc4e41
wsp2021-08-07d01t05.flac:21e19cfc6fc5e0b7dccf4601eadf7a4e
wsp2021-08-07d01t06.flac:234125691eedc4c43e55ea9fcc3e8d3e
wsp2021-08-07d01t07.flac:8b5aa9cf17cdb6b9c802346251992268
wsp2021-08-07d01t08.flac:163db7f7bbfb371c395b46c5fad19323
wsp2021-08-07d01t09.flac:82789c162dea7a0cf1ef8473cf4732b0
wsp2021-08-07d02t01.flac:80dd6c0ff25352f95e72e45a37617fa9
wsp2021-08-07d02t02.flac:59dee0f99a7bfe4a09c4e79413ddb198
wsp2021-08-07d02t03.flac:09f1b5acc0345fcad1ccb8f21f260abe
wsp2021-08-07d02t04.flac:c45aa6a7dfb17234ce28d1136a2424d2
wsp2021-08-07d02t05.flac:090cbde25a24e102d28f9604344e4dbf
wsp2021-08-07d02t06.flac:af679f49bdd70f7c94cb38c4330a5223
wsp2021-08-07d03t01.flac:204767f82a802253d721988a86731ccb
wsp2021-08-07d03t02.flac:f9218630c2b90a2ae59baea3f1f18a9d
wsp2021-08-07d03t03.flac:6b4fd6a131b01db93db27825ff1233cc
wsp2021-08-07d03t04.flac:596382b8cffdc1b731db088f46bd4772
wsp2021-08-07d03t05.flac:2f4634f75d918864c511d63566043d41
wsp2021-08-07d03t06.flac:6ed10e5e2fee1ad7cd96a6aa9d748379
wsp2021-08-07d03t07.flac:ea2e21fe9090d4c8eefd13c896d35b5c
wsp2021-08-07d03t08.flac:3e2e474d0c979ec496d016306a713d04
wsp2021-08-07d03t09.flac:6945ad1a0aae14a4fd69d7801fa2c8df
wsp2021-08-07d03t10.flac:e11842682da148ddbef3358407927996
wsp2021-08-07d03t11.flac:6d34a18acda60dbd0b524a461dec5278

 length     expanded size    cdr  WAVE problems  fmt   ratio  filename
     7:22.04       77978252 B   ---   --   ---xx   flac  0.4967  wsp2021-08-07d01t01.flac
    14:32.39      153912572 B   ---   --   ---xx   flac  0.5147  wsp2021-08-07d01t02.flac
     7:00.23       74142140 B   ---   --   ---xx   flac  0.5330  wsp2021-08-07d01t03.flac
     6:10.60       65409164 B   ---   --   ---xx   flac  0.4342  wsp2021-08-07d01t04.flac
     8:32.55       90446204 B   ---   --   ---xx   flac  0.5284  wsp2021-08-07d01t05.flac
     6:16.62       66472268 B   ---   --   ---xx   flac  0.5148  wsp2021-08-07d01t06.flac
     5:08.65       54484124 B   ---   --   ---xx   flac  0.5306  wsp2021-08-07d01t07.flac
     6:45.05       71453804 B   ---   --   ---xx   flac  0.5156  wsp2021-08-07d01t08.flac
     7:48.45       82661084 B   ---   --   ---xx   flac  0.5516  wsp2021-08-07d01t09.flac
     7:37.38       80704220 B   ---   --   ---xx   flac  0.4800  wsp2021-08-07d02t01.flac
     7:25.67       78655628 B   ---   --   ---xx   flac  0.4646  wsp2021-08-07d02t02.flac
    10:11.50      107898044 B   ---   --   ---xx   flac  0.4861  wsp2021-08-07d02t03.flac
     9:17.47       98365388 B   ---   --   ---xx   flac  0.4772  wsp2021-08-07d02t04.flac
     9:48.71      103890236 B   ---   --   ---xx   flac  0.4877  wsp2021-08-07d02t05.flac
     8:56.23       94604540 B   ---   --   ---xx   flac  0.5296  wsp2021-08-07d02t06.flac
    10:32.67      111642428 B   ---   --   ---xx   flac  0.4506  wsp2021-08-07d03t01.flac
     7:01.65       74417324 B   ---   --   ---xx   flac  0.5255  wsp2021-08-07d03t02.flac
     2:58.69       31561532 B   ---   --   ---xx   flac  0.5484  wsp2021-08-07d03t03.flac
     1:57.11       20664716 B   ---   --   ---xx   flac  0.5034  wsp2021-08-07d03t04.flac
     2:51.14       30197372 B   ---   --   ---xx   flac  0.5305  wsp2021-08-07d03t05.flac
     1:28.38       15612620 B   ---   --   ---xx   flac  0.5285  wsp2021-08-07d03t06.flac
     5:39.04       59809052 B   ---   --   ---xx   flac  0.4835  wsp2021-08-07d03t07.flac
     6:44.58       71402060 B   ---   --   ---xx   flac  0.5656  wsp2021-08-07d03t08.flac
     8:51.00       93668444 B   ---   --   ---xx   flac  0.4604  wsp2021-08-07d03t09.flac
     5:28.01       57861596 B   ---   --   ---xx   flac  0.5271  wsp2021-08-07d03t10.flac
     5:22.68       56960780 B   ---   --   ---xx   flac  0.5467  wsp2021-08-07d03t11.flac
   181:51.74     1924875592 B                            0.5040  (26 files)








More information about the bittorrent mailing list