[bittorrent] GD 7/25/74 [152924] - SBD Remaster - International Amphitheatre - Chicago, IL 1644

Automated Mailer noreply-bt.e at etree.org
Sun Aug 8 01:38:37 UTC 2021


Band:           Grateful Dead
Torrent Name:   GD 7/25/74 [152924] - SBD Remaster - International Amphitheatre - Chicago, IL 1644
Uploaded by:    grv68
DB Link:        
Details:        http://bt.etree.org/details.php?id=613398

Contact the seeder at http://db.etree.org/grv68

If the link to this show does not work, it was probably removed for
being non-trade-friendly.

Description / text file:
-------------------------
Grateful Dead
International Amphitheatre
Chicago, IL
Thursday, July 25, 1974

Source: SBD -> Vault Master Reel -> Dat -> Sonic Solutions -> CD 

Remastered by Jim Blackwood
Pitch Correction by Jason Chastain

Orignally aired on 91.3 FM KXCI Tucson on July 25, 2021
Hosted by Jim Blackwood and Jamie Waddell
https://spinitron.com/KXCI/pl/13752866/Dead-Air

FLAC Level 8 at 16 bit 44.1kHz

Notes:
- Remaster shared at www.shnflac.net in August, 2021
- Original Source ID 12656 except "Me and My Uncle", which is from Source ID 1072
- Distortion and analog pops in drums repaired in "Dark Star Jam"

Set I
01 Me and My Uncle
02 Loose Lucy
03 Black Throated Wind
04 Loser
05 Beat It on Down the Line
06 Sugaree
07 Mexicali Blues
08 Brown Eyed Women
09 El Paso
10 Row Jimmy
11 Weather Report Suite >
12 Let It Grow >
13 Around and Around

Set II
14 Scarlet Begonias
15 Big River
16 It Must Have Been the Roses
17 Jack Straw
18 Dark Star Jam >
19 Slipknot! Jam >
20 Stella Blue
21 Johnny B. Goode
22 Uncle John's Band
23 US Blues
24 One More Saturday Night

Encore 
25 Ship of Fools

**gems**

    length     expanded size    cdr  WAVE problems  fmt   ratio  filename
     4:07.33       43648460 B   ---   --   ---xx   flac  0.5005  01 Me and My Uncle.flac
     5:09.03       54514700 B   ---   --   ---xx   flac  0.5456  02 Loose Lucy.flac
     6:50.71       72491036 B   ---   --   ---xx   flac  0.5315  03 Black Throated Wind.flac
     6:57.38       73648220 B   ---   --   ---xx   flac  0.5303  04 Loser.flac
     3:34.01       37751996 B   ---   --   ---xx   flac  0.5687  05 Beat It on Down the Line.flac
     6:48.40       72065324 B   ---   --   ---xx   flac  0.5218  06 Sugaree.flac
     3:31.72       37389788 B   ---   --   ---xx   flac  0.5599  07 Mexicali Blues.flac
     4:49.54       51106652 B   ---   --   ---xx   flac  0.5249  08 Brown Eyed Women.flac
     4:39.07       49232108 B   ---   --   ---xx   flac  0.5458  09 El Paso.flac
     8:18.60       87988364 B   ---   --   ---xx   flac  0.5177  10 Row Jimmy.flac
     6:11.27       65507948 B   ---   --   ---xx   flac  0.4890  11 Weather Report Suite.flac
    10:17.68      108998780 B   ---   --   ---xx   flac  0.5448  12 Let It Grow.flac
     5:34.67       59075228 B   ---   --   ---xx   flac  0.5614  13 Around and Around.flac
     8:11.05       86624204 B   ---   --   ---xx   flac  0.5618  14 Scarlet Begonias.flac
     4:57.46       52499036 B   ---   --   ---xx   flac  0.5569  15 Big River.flac
     5:28.18       57901580 B   ---   --   ---xx   flac  0.5351  16 It Must Have Been the Roses.flac
     4:53.67       51842828 B   ---   --   ---xx   flac  0.5553  17 Jack Straw.flac
    21:09.07      223868108 B   ---   --   ---xx   flac  0.5475  18 Dark Star Jam.flac
     3:05.25       32692844 B   ---   --   ---xx   flac  0.5566  19 Slipknot! Jam.flac
     8:37.36       91283516 B   ---   --   ---xx   flac  0.5152  20 Stella Blue.flac
     3:42.20       39207884 B   ---   --   ---xx   flac  0.5641  21 Johnny B. Goode.flac
     7:45.37       82113068 B   ---   --   ---xx   flac  0.5462  22 Uncle John's Band.flac
     5:41.60       60293564 B   ---   --   ---xx   flac  0.5704  23 US Blues.flac
     4:59.63       52891820 B   ---   --   ---xx   flac  0.5790  24 One More Saturday Night.flac
     6:15.67       66307628 B   ---   --   ---xx   flac  0.5311  25 Ship of Fools.flac
   161:39.17     1710944684 B                            0.5410  (25 files)




More information about the bittorrent mailing list